На всех торрентах на трекере установлена скидка на скачивание в размере 100 процентов(а).
 Возможность скачивания торрента НЕ зависит от ограничений при низком ратио, низком аплоаде, требуемом ратио или требуемом аплоаде.


Начать новую тему Ответить на тему
Статистика раздачи
Размер: 3.96 ГБ | Добавлен: 14 ноя 2014, 18:37 | Скачали: 0
Сидеров: 1  [0 байт/сек]    Личеров: 136  [0 байт/сек]
Пред. тема | След. тема 

Автор
Сообщение

СообщениеДобавлено: 14 ноя 2014, 18:37 

Название: Зов белокурой богини (Страсть к вуду)
Оригинальное название: Der Ruf der blonden Göttin (Voodoo Passion)
Год выпуска: 1977
Жанр: Эротика, драма, криминал
Режиссер: Хесус Франко
В ролях: Мюриэль Монтоссэ, Ада Толер, Джек Тейлор, Карин Гамбье, Витор Мендез, Ли Фрэй, Рита Морено, Сандра Дэнликер, Айда Гувейя, Норберт Лангерю

О фильме: Сюзанна, жена британского консула на Таити, переезжает жить к нему на остров. Здесь она сталкивается со странными персонажами – сестрой мужа Ольгой, похотливой блондинкой с лесбийскими наклонностями, занимающейся инцестом с братом, и со служанкой, которая, зомбируя Сюзанну, проводит с ней ритуалы Вуду – они танцуют обнаженные под звуки барабанов и входят в транс...



Страна: Швейцария
Студия: Elite Film, Nestor Film Produktion
Продолжительность: 01:26:06
Перевод: Авторский одноголосый (Антон Алексеев)


Кодек: MPEG-4 AVC
Качество: BDRip (720p)
Видео: 5758 Кбит/с, 1280x680, 24.000 кадр/с
Звук: Русский (AC3, 2 ch, 192 Кбит/с), немецкий (AC3, 6 ch, 640 Кбит/с)







Общее
Уникальный идентификатор : 219951720753426729402044245670301141472 (0xA57929189D900307B20D8E0607CE09E0)
Полное имя : D:Der Ruf der blonden Gottin. 1977. BDRip (720p) - ylnian.mkv
Формат : Matroska
Версия формата : Version 4 / Version 2
Размер файла : 3,96 Гбайт
Продолжительность : 1 ч. 26 м.
Общий поток : 6592 Кбит/сек
Название фильма : Der Ruf der blonden Gottin. 1977. BDRip (720p) - ylnian (by HDLine)
Дата кодирования : UTC 2014-02-14 05:06:54
Программа кодирования : mkvmerge v6.7.0 ('Back to the Ground') 64bit built on Jan 8 2014 15:10:52
Библиотека кодирования : libebml v1.3.0 + libmatroska v1.4.1

Видео
Идентификатор : 1
Формат : AVC
Формат/Информация : Advanced Video Codec
Профиль формата : High@L4.1
Параметр CABAC формата : Да
Параметр ReFrames формата : 5 кадров
Идентификатор кодека : V_MPEG4/ISO/AVC
Продолжительность : 1 ч. 26 м.
Битрейт : 5758 Кбит/сек
Ширина : 1280 пикселей
Высота : 680 пикселей
Соотношение сторон : 1,882
Режим частоты кадров : Постоянный
Частота кадров : 24,000 кадра/сек
Цветовое пространство : YUV
Субдискретизация насыщенности : 4:2:0
Битовая глубина : 8 бит
Тип развёртки : Прогрессивная
Бит/(Пиксели*Кадры) : 0.276
Размер потока : 3,39 Гбайт (85%)
Заголовок : Der.Ruf.der.blonden.Goettin.1977.German.720p.BluRay.x264-iFPD
Библиотека кодирования : x264 core 140 r2377 1ca7bb9
Настройки программы : cabac=1 / ref=5 / deblock=1:-3:-3 / analyse=0x3:0x113 / me=umh / subme=7 / psy=1 / psy_rd=1.00:0.15 / mixed_ref=1 / me_range=16 / chroma_me=1 / trellis=1 / 8x8dct=1 / cqm=0 / deadzone=21,11 / fast_pskip=0 / chroma_qp_offset=-3 / threads=12 / lookahead_threads=2 / sliced_threads=0 / nr=0 / decimate=1 / interlaced=0 / bluray_compat=0 / constrained_intra=0 / bframes=3 / b_pyramid=2 / b_adapt=1 / b_bias=0 / direct=3 / weightb=1 / open_gop=0 / weightp=2 / keyint=250 / keyint_min=24 / scenecut=40 / intra_refresh=0 / rc_lookahead=40 / rc=2pass / mbtree=1 / bitrate=5758 / ratetol=1.0 / qcomp=0.60 / qpmin=0 / qpmax=69 / qpstep=4 / cplxblur=20.0 / qblur=0.5 / ip_ratio=1.40 / aq=1:1.00
Язык : German
Default : Да
Forced : Да

Аудио #1
Идентификатор : 2
Формат : AC-3
Формат/Информация : Audio Coding 3
Расширение режима : CM (complete main)
Параметр Endianness формата : Big
Идентификатор кодека : A_AC3
Продолжительность : 1 ч. 26 м.
Вид битрейта : Постоянный
Битрейт : 192 Кбит/сек
Каналы : 2 канала
Расположение каналов : Front: L R
Частота : 48,0 КГц
Битовая глубина : 16 бит
Метод сжатия : С потерями
Размер потока : 118 Мбайт (3%)
Заголовок : VO (Alekseev) (AC3 2.0 192 kbps)
Язык : Russian
Default : Да
Forced : Да

Аудио #2
Идентификатор : 3
Формат : AC-3
Формат/Информация : Audio Coding 3
Расширение режима : CM (complete main)
Параметр Endianness формата : Big
Идентификатор кодека : A_AC3
Продолжительность : 1 ч. 26 м.
Вид битрейта : Постоянный
Битрейт : 640 Кбит/сек
Каналы : 6 каналов
Расположение каналов : Front: L C R, Side: L R, LFE
Частота : 48,0 КГц
Битовая глубина : 16 бит
Метод сжатия : С потерями
Размер потока : 394 Мбайт (10%)
Заголовок : AC3 5.1 640 kbps
Язык : German
Default : Нет
Forced : Нет

Меню
00:00:00.000 : en:00:00:00.000
00:06:57.000 : en:00:06:57.000
00:11:38.625 : en:00:11:38.625
00:21:29.000 : en:00:21:29.000
00:32:37.000 : en:00:32:37.000
00:36:52.000 : en:00:36:52.000
00:44:53.708 : en:00:44:53.708
00:49:53.583 : en:00:49:53.583
00:54:07.625 : en:00:54:07.625
01:03:56.250 : en:01:03:56.250
01:14:32.583 : en:01:14:32.583
01:19:04.792 : en:01:19:04.792


Релиз от: ylnian
загрузка...
Правила, инструкции, FAQ!!!
Торрент  Добавлен [14 ноя 2014, 18:37] Скачать торрент
Скачать торрент
[ Размер 20.45 КБ / Просмотров 9 ]

Статус
Проверен 
 
Размер  3.96 ГБ
Приватный: Нет (DHT включён)
.torrent скачан  0
Как залить торрент? | Как скачать Torrent? | Как смотреть и слушать онлайн?  


     Отправить личное сообщение
   
Страница 1 из 1
Показать сообщения за:  Поле сортировки  
Начать новую тему Ответить на тему

   Похожие торренты   Автор   Ответы   Просмотры   Последнее сообщение 
В этой теме нет новых непрочитанных сообщений. Страсть / Passion (2012) BDRip-AVC | Green Tea

в форуме 720p | 1080p

Anonymous

0

90

29 дек 2013, 17:23

Anonymous Перейти к последнему сообщению

В этой теме нет новых непрочитанных сообщений. Скачать торрент Проверен Роковая страсть / The Immigrant (2013) BDRip [576p] iPad

в форуме Фильмы для iPod, iPhone, iPad, Размер: 2.07 ГБ, Здоровье: ???%

Гость

0
0|1

329
0

13 сен 2015, 01:37

Гость Перейти к последнему сообщению

В этой теме нет новых непрочитанных сообщений. Скачать торрент Проверен Колдун / Sorcerer (1977) BDRip 720p

в форуме 720p | 1080p, Размер: 10.63 ГБ, Здоровье: 64%

Anonymous

0
33|51

42
13

12 ноя 2014, 19:59

Anonymous Перейти к последнему сообщению

В этой теме нет новых непрочитанных сообщений. Скачать торрент Проверен The Who: At Kilburn 1977 (720p) [2008, Rock, BDRip]

в форуме Концерты (HD-Video), Размер: 8.58 ГБ, Здоровье: 0%

Anonymous

0
0|0

1
0

23 окт 2016, 11:23

Anonymous Перейти к последнему сообщению

В этой теме нет новых непрочитанных сообщений. Скачать торрент АББА: Фильм / ABBA: The Movie (1977) BDRip 720p | P

в форуме Клипы (HD-Video), Размер: 4.34 ГБ, Здоровье: 66%

Anonymous

0
2|3

167
2

30 мар 2014, 23:41

Anonymous Перейти к последнему сообщению



Сейчас этот форум просматривают: нет зарегистрированных пользователей и гости: 1


Вы не можете начинать темы
Вы не можете отвечать на сообщения
Вы не можете редактировать свои сообщения
Вы не можете удалять свои сообщения
Вы не можете добавлять вложения

Перейти:  

!ВНИМАНИЕ!
 Ресурс не предоставляет электронные версии произведений, а занимается лишь коллекционированием и каталогизацией ссылок, присылаемых и публикуемых на форуме нашими читателями. Если вы являетесь правообладателем какого-либо представленного материала и не желаете чтобы ссылка на него находилась в нашем каталоге, свяжитесь с нами и мы незамедлительно удалим её. Файлы для обмена на трекере предоставлены пользователями сайта, и администрация не несёт ответственности за их содержание. Просьба не заливать файлы, защищенные авторскими правами, а также файлы нелегального содержания!