На всех торрентах на трекере установлена скидка на скачивание в размере 100 процентов(а).
 Возможность скачивания торрента НЕ зависит от ограничений при низком ратио, низком аплоаде, требуемом ратио или требуемом аплоаде.


Начать новую тему Ответить на тему
Статистика раздачи
Размер: 5.13 ГБ | Добавлен: 14 ноя 2014, 16:13 | Скачали: 79
Сидеров: 18  [0 байт/сек]    Личеров: 7  [0 байт/сек]
Пред. тема | След. тема 

Автор
Сообщение

СообщениеДобавлено: 14 ноя 2014, 16:13 

Год выпуска: 1984
Страна: США
Жанр: драма, криминал, детектив, военный
Продолжительность: 01:40:54
Перевод: профессиональный многоголосый
Субтитры: английские

Режиссёр: Норман Джуисон

В ролях: Ховард Э. Роллинз мл., Адольф Цезар, Арт Эванс, Дэвид Алан Грир, Дэвид Харрис, Деннис Липском, Ларри Райли, Роберт Таунзенд, Дензел Вашингтон, Уильям Аллен Янг

Описание: 1944 год. На американской военной базе ЧП: застрелен сержант, афроамериканец Уотерс. Расследование убийства поручено капитану Дэвенпорту, чернокожему армейскому юристу. Белые офицеры и чёрные солдаты поражены таким назначением. Приступив к допросам, Дэвенпорт быстро понимает, что на помощь в поисках истины ему не стоит рассчитывать...



Качество: BDRip 720p
Формат: MKV
Видео кодек: H.264
Аудио кодек: AC3
Видео: 6755 Кбит/с, 1280x694, 23.976 кадра/с, 0.317 bpp
Аудио 1: русский, AC3, 192 kbps, 2 ch, 48 kHz [профессиональный многоголосый]
Аудио 2: английский, AC3, 192 kbps, 2 ch, 48 kHz [оригинал]

Имеются неименованные главы/чаптеры.

Оскар, 1985 год
Номинации (3):
Лучший фильм
Лучшая мужская роль второго плана (Адольф Цезар)
Лучший адаптированный сценарий
Золотой глобус, 1985 год
Номинации (3):
Лучший фильм (драма)
Лучшая мужская роль второго плана (Адольф Цезар)
Лучший сценарий
ММКФ, 1985 год
Победитель (1):
Золотой приз

frame I:939 Avg QP:20.00 size:117671
frame P:25736 Avg QP:21.07 size: 66225
frame B:118477 Avg QP:22.83 size: 28741

Общее
Уникальный идентификатор : 189564390043511500950987694123703825713 (0x8E9CC6053D00E762B4466FFD62B37531)
Полное имя : D:VideoArmejskaja istorija.1984.BDRip.720p.mkv
Формат : Matroska
Версия формата : Version 4 / Version 2
Размер файла : 5,13 Гбайт
Продолжительность : 1 ч. 40 м.
Общий поток : 7284 Кбит/сек
Дата кодирования : UTC 2014-11-14 08:47:28
Программа кодирования : mkvmerge v7.3.0 ('Nouages') 64bit built on Oct 22 2014 18:53:34
Библиотека кодирования : libebml v1.3.0 + libmatroska v1.4.1
DURATION : 01:37:42.190000000
NUMBER_OF_FRAMES : 1445
NUMBER_OF_BYTES : 52719
_STATISTICS_WRITING_APP : mkvmerge v7.3.0 ('Nouages') 64bit built on Oct 22 2014 18:53:34
_STATISTICS_WRITING_DATE_UTC : 2014-11-14 08:47:28
_STATISTICS_TAGS : BPS DURATION NUMBER_OF_FRAMES NUMBER_OF_BYTES

Видео
Идентификатор : 1
Формат : AVC
Формат/Информация : Advanced Video Codec
Профиль формата : High@L4.1
Параметр CABAC формата : Да
Параметр ReFrames формата : 9 кадров
Идентификатор кодека : V_MPEG4/ISO/AVC
Продолжительность : 1 ч. 40 м.
Битрейт : 6755 Кбит/сек
Ширина : 1280 пикселей
Высота : 694 пикселя
Соотношение сторон : 1,85:1
Режим частоты кадров : Постоянный
Частота кадров : 23,976 кадра/сек
Цветовое пространство : YUV
Субдискретизация насыщенности : 4:2:0
Битовая глубина : 8 бит
Тип развёртки : Прогрессивная
Бит/(Пиксели*Кадры) : 0.317
Размер потока : 4,76 Гбайт (93%)
Заголовок : BDRip -- STarankov
Библиотека кодирования : x264 core 142 r2431 ac76440
Настройки программы : cabac=1 / ref=9 / deblock=1:-1:-1 / analyse=0x3:0x113 / me=umh / subme=10 / psy=1 / psy_rd=1.00:0.15 / mixed_ref=1 / me_range=32 / chroma_me=1 / trellis=2 / 8x8dct=1 / cqm=0 / deadzone=21,11 / fast_pskip=1 / chroma_qp_offset=-3 / threads=6 / lookahead_threads=1 / sliced_threads=0 / nr=0 / decimate=1 / interlaced=0 / bluray_compat=0 / constrained_intra=0 / bframes=8 / b_pyramid=2 / b_adapt=2 / b_bias=0 / direct=3 / weightb=1 / open_gop=0 / weightp=2 / keyint=230 / keyint_min=23 / scenecut=40 / intra_refresh=0 / rc_lookahead=40 / rc=crf / mbtree=0 / crf=19.8 / qcomp=0.60 / qpmin=0 / qpmax=69 / qpstep=4 / vbv_maxrate=50000 / vbv_bufsize=62500 / crf_max=0.0 / nal_hrd=none / filler=0 / ip_ratio=1.40 / pb_ratio=1.30 / aq=1:1.00
Язык : English
Default : Да
Forced : Нет
DURATION : 01:40:54.048000000
NUMBER_OF_FRAMES : 145152
NUMBER_OF_BYTES : 5219948508
_STATISTICS_WRITING_APP : mkvmerge v7.3.0 ('Nouages') 64bit built on Oct 22 2014 18:53:34
_STATISTICS_WRITING_DATE_UTC : 2014-11-14 08:47:28
_STATISTICS_TAGS : BPS DURATION NUMBER_OF_FRAMES NUMBER_OF_BYTES

Аудио #1
Идентификатор : 2
Формат : AC-3
Формат/Информация : Audio Coding 3
Расширение режима : CM (complete main)
Параметр Endianness формата : Big
Идентификатор кодека : A_AC3
Продолжительность : 1 ч. 40 м.
Вид битрейта : Постоянный
Битрейт : 192 Кбит/сек
Каналы : 2 канала
Расположение каналов : Front: L R
Частота : 48,0 КГц
Битовая глубина : 16 бит
Метод сжатия : С потерями
Размер потока : 139 Мбайт (3%)
Заголовок : MVO
Язык : Russian
Default : Да
Forced : Нет

Аудио #2
Идентификатор : 3
Формат : AC-3
Формат/Информация : Audio Coding 3
Расширение режима : CM (complete main)
Параметр Endianness формата : Big
Идентификатор кодека : A_AC3
Продолжительность : 1 ч. 40 м.
Вид битрейта : Постоянный
Битрейт : 192 Кбит/сек
Каналы : 2 канала
Расположение каналов : Front: L R
Частота : 48,0 КГц
Битовая глубина : 16 бит
Метод сжатия : С потерями
Размер потока : 139 Мбайт (3%)
Заголовок : Original
Язык : English
Default : Нет
Forced : Нет

Текст
Идентификатор : 4
Формат : UTF-8
Идентификатор кодека : S_TEXT/UTF8
Идентификатор кодека/Информация : UTF-8 Plain Text
Заголовок : английский (для слабослышащих)
Язык : English
Default : Нет
Forced : Нет

Меню
00:00:00.000 : en:Chapter 1
00:06:48.116 : en:Chapter 2
00:14:10.641 : en:Chapter 3
00:20:04.328 : en:Chapter 4
00:26:30.589 : en:Chapter 5
00:33:09.821 : en:Chapter 6
00:42:56.073 : en:Chapter 7
00:49:44.648 : en:Chapter 8
00:53:42.970 : en:Chapter 9
00:57:32.074 : en:Chapter 10
01:05:16.246 : en:Chapter 11
01:13:48.799 : en:Chapter 12
01:19:26.637 : en:Chapter 13
01:26:29.351 : en:Chapter 14
01:30:12.824 : en:Chapter 15
01:35:55.792 : en:Chapter 16


загрузка...
Правила, инструкции, FAQ!!!
Торрент  Добавлен [14 ноя 2014, 16:13] Скачать торрент
Скачать торрент
[ Размер 26.19 КБ / Просмотров 6 ]

Статус
Проверен 
 
Размер  5.13 ГБ
Приватный: Нет (DHT включён)
.torrent скачан  79
Как залить торрент? | Как скачать Torrent? | Как смотреть и слушать онлайн?  


     Отправить личное сообщение
   
Страница 1 из 1
Показать сообщения за:  Поле сортировки  
Начать новую тему Ответить на тему

   Похожие торренты   Автор   Ответы   Просмотры   Последнее сообщение 
В этой теме нет новых непрочитанных сообщений. Скачать торрент Проверен Армейская история / История солдата / A Soldier's Story (1984) BDRip

в форуме Военные, Размер: 1.45 ГБ, Здоровье: 100%

Anonymous

0
19|14

236
105

14 ноя 2014, 16:16

Anonymous Перейти к последнему сообщению

В этой теме нет новых непрочитанных сообщений. Скачать торрент Пинк Флойд: История альбома "Wish You Were Here" / Pink Floyd: The Story of Wish You Were Here (2012) BDRip 720p | P

в форуме Концерты (HD-Video), Размер: 2.78 ГБ, Здоровье: 100%

Anonymous

0
116|3

72
53

26 фев 2014, 16:34

Anonymous Перейти к последнему сообщению

В этой теме нет новых непрочитанных сообщений. Скачать торрент История Джулиана Ассанжа / Underground: The Julian Assange Story (2012) WEB-DL 720p | P2

в форуме 720p | 1080p, Размер: 2.85 ГБ, Здоровье: 0%

Anonymous

0
0|0

43
1

15 мар 2014, 21:55

Anonymous Перейти к последнему сообщению

В этой теме нет новых непрочитанных сообщений. Скачать торрент Это очень забавная история / It's Kind of a Funny Story (2010) BDRip | Лицензия

в форуме Драмы, Мелодрамы, Размер: 2.19 ГБ, Здоровье: 0%

Anonymous

0
0|0

87
0

20 фев 2014, 15:04

Anonymous Перейти к последнему сообщению

В этой теме нет новых непрочитанных сообщений. Скачать торрент Проверен The Kate Bush Story - Running up That Hill - История Кейт Бушa [2014, Music Documentary, HDTV 720p]

в форуме Концерты (HD-Video), Размер: 1019.84 МБ, Здоровье: 100%

Anonymous

0
5|2

7
0

23 окт 2016, 19:38

Anonymous Перейти к последнему сообщению



Сейчас этот форум просматривают: нет зарегистрированных пользователей и гости: 2


Вы не можете начинать темы
Вы не можете отвечать на сообщения
Вы не можете редактировать свои сообщения
Вы не можете удалять свои сообщения
Вы не можете добавлять вложения

Перейти:  

!ВНИМАНИЕ!
 Ресурс не предоставляет электронные версии произведений, а занимается лишь коллекционированием и каталогизацией ссылок, присылаемых и публикуемых на форуме нашими читателями. Если вы являетесь правообладателем какого-либо представленного материала и не желаете чтобы ссылка на него находилась в нашем каталоге, свяжитесь с нами и мы незамедлительно удалим её. Файлы для обмена на трекере предоставлены пользователями сайта, и администрация не несёт ответственности за их содержание. Просьба не заливать файлы, защищенные авторскими правами, а также файлы нелегального содержания!