На всех торрентах на трекере установлена скидка на скачивание в размере 100 процентов(а).
 Возможность скачивания торрента НЕ зависит от ограничений при низком ратио, низком аплоаде, требуемом ратио или требуемом аплоаде.


Начать новую тему Ответить на тему
Статистика раздачи
Размер: 2.77 ГБ | Добавлен: 13 ноя 2014, 00:15 | Скачали: 0
Сидеров: 47  [0 байт/сек]    Личеров: 1  [0 байт/сек]
Пред. тема | След. тема 

Автор
Сообщение

СообщениеДобавлено: 13 ноя 2014, 00:15 

Год выпуска: 1992
Дата мировой премьеры: 4 сентября 1992
Жанр: Комедия, Криминал, Приключения

Режиссер: Франсис Вебер
Сценарий: Дэниэл Голдин, Джошуа Голдин
Оператор: Дональд И. Торин
Музыка: Ван Дайк Паркс
Актеры: Мэттью Бродерик, Джеффри Джонс, Хайди Клинг, Джон Си Райли, Мэриан Мерсер, Ларри Хэнкин, Дэвид Маргулис, Кортни Пелдон, Майкл Монкс, Эндрю Бенне, Мики Джонс, Нэнси Ленехан, Ной Крэйг Эндрюс, Бен Дискин, Адам Вайли, Джон Кристиан Граас, Бетани Ричардс, Ричард Эллисон, Пол Эллисон, Роб Нюкирш, Лу ДиМаджио, Джон Пози, Darrell Kunitomi, Джули Араског

Описание фильма:
В его бумажнике было не так много денег. Зато там была бумажка с номером телефона стоимостью более ста миллионов долларов. Терять его было непростительной ошибкой, и есть лишь одно место, где его можно найти. Правда, есть опасность в ходе этих поисков потерять жизнь…

Продолжительность: 01:22:58
Качество видео: HDTVRip
Перевод : Многоголосый закадровый (СТС), двухголосый закадровый
Язык субтитров: английские
Вид субтитров: Вшитые
Формат субтитров: softsub (SRT)



Формат: MKV
Видеокодек: MPEG-4 AVC/H.264
Битрейт видео: ~4104 kb/s
Размер кадра: 1280x692
Аудио 1: Russian / Dolby Digital Audio / 2.0 / 48 kHz / 192 kbps |многоголосый закадровый| СТС
Аудио 2: Russian / Dolby Digital Audio / 2.0 / 48 kHz / 192 kbps |двухголосый закадровый|
Аудио 3: English / Dolby Digital Audio / 2.0 / 48 kHz / 192 kbps
General
Unique ID : 233326214745544121289241332208690873451 (0xAF88FE8F9D8A76ECA36006067565446B)
Complete name : В опасности. Out on a Limb (1992).mkv
Format : Matroska
Format version : Version 4 / Version 2
File size : 2.77 GiB
Duration : 1h 22mn
Overall bit rate : 4 775 Kbps
Encoded date : UTC 2014-11-09 09:56:31
Writing application : mkvmerge v7.3.0 ('Nouages') 64bit built on Oct 22 2014 18:53:34
Writing library : libebml v1.3.0 + libmatroska v1.4.1
_STATISTICS_WRITING_APP : mkvmerge v7.3.0 ('Nouages') 64bit built on Oct 22 2014 18:53:34
_STATISTICS_WRITING_DATE_UTC : 2014-11-09 09:56:31
_STATISTICS_TAGS : BPS DURATION NUMBER_OF_FRAMES NUMBER_OF_BYTES
DURATION : 01:22:53.696000000
NUMBER_OF_FRAMES : 155428
NUMBER_OF_BYTES : 119368704

Video
ID : 1
Format : AVC
Format/Info : Advanced Video Codec
Format profile :
Format settings, CABAC : No
Format settings, ReFrames : 2 frames
Codec ID : V_MPEG4/ISO/AVC
Duration : 1h 22mn
Bit rate : 4 104 Kbps
Width : 1 280 pixels
Height : 692 pixels
Display aspect ratio : 1.85:1
Frame rate mode : Constant
Frame rate : 23.976 fps
Color space : YUV
Chroma subsampling : 4:2:0
Bit depth : 8 bits
Scan type : Progressive
Bits/(Pixel*Frame) : 0.193
Stream size : 2.38 GiB (86%)
Language : English
Default : Yes
Forced : No
Color primaries : BT.709
Transfer characteristics : BT.709
Matrix coefficients : BT.709

Audio #1
ID : 2
Format : AC-3
Format/Info : Audio Coding 3
Mode extension : CM (complete main)
Format settings, Endianness : Big
Codec ID : A_AC3
Duration : 1h 22mn
Bit rate mode : Constant
Bit rate : 192 Kbps
Channel(s) : 2 channels
Channel positions : Front: L R
Sampling rate : 48.0 KHz
Bit depth : 16 bits
Compression mode : Lossy
Stream size : 114 MiB (4%)
Title : СТС
Language : Russian
Default : Yes
Forced : No

Audio #2
ID : 3
Format : AC-3
Format/Info : Audio Coding 3
Mode extension : CM (complete main)
Format settings, Endianness : Big
Codec ID : A_AC3
Duration : 1h 22mn
Bit rate mode : Constant
Bit rate : 192 Kbps
Channel(s) : 2 channels
Channel positions : Front: L R
Sampling rate : 48.0 KHz
Bit depth : 16 bits
Compression mode : Lossy
Stream size : 114 MiB (4%)
Title : DVO
Language : Russian
Default : No
Forced : No

Audio #3
ID : 4
Format : AC-3
Format/Info : Audio Coding 3
Mode extension : CM (complete main)
Format settings, Endianness : Big
Codec ID : A_AC3
Duration : 1h 22mn
Bit rate mode : Constant
Bit rate : 192 Kbps
Channel(s) : 2 channels
Channel positions : Front: L R
Sampling rate : 48.0 KHz
Bit depth : 16 bits
Compression mode : Lossy
Stream size : 114 MiB (4%)
Language : English
Default : No
Forced : No

Text
ID : 5
Format : UTF-8
Codec ID : S_TEXT/UTF8
Codec ID/Info : UTF-8 Plain Text
Title : Englisch
Language : English
Default : No
Forced : No

Menu
00:00:00.000 : en:1
00:03:06.000 : en:2
00:07:24.000 : en:3
00:11:50.000 : en:4
00:16:08.000 : en:5
00:20:42.000 : en:6
00:24:19.000 : en:7
00:28:16.000 : en:8
00:31:47.000 : en:9
00:39:17.000 : en:10
00:43:16.000 : en:11
00:50:31.000 : en:12
00:56:43.000 : en:13
00:59:38.000 : en:14
01:04:29.000 : en:15
01:11:16.000 : en:16
01:15:45.000 : en:17
01:19:22.000 : en:18
Скриншоты:

загрузка...
Правила, инструкции, FAQ!!!
Торрент  Добавлен [13 ноя 2014, 00:15] Скачать торрент
Скачать торрент
[ Размер 14.66 КБ / Просмотров 14 ]

Статус
Проверен 
 
Размер  2.77 ГБ
Приватный: Нет (DHT включён)
.torrent скачан  0
Как залить торрент? | Как скачать Torrent? | Как смотреть и слушать онлайн?  


     Отправить личное сообщение
   
Страница 1 из 1
Показать сообщения за:  Поле сортировки  
Начать новую тему Ответить на тему

   Похожие торренты   Автор   Ответы   Просмотры   Последнее сообщение 
В этой теме нет новых непрочитанных сообщений. Скачать торрент Проверен МакSим - Полная дискография и видеография (2006-2015) FLAC, MP3, HDTVRip, HDTVRip 720p, HDTVRip 1080p

в форуме Дискографии (Отечественные), Размер: 24.2 ГБ, Здоровье: 100%

Гость

0
271|150

294
23

20 дек 2015, 12:22

Гость Перейти к последнему сообщению

В этой теме нет новых непрочитанных сообщений. Скачать торрент Меркурий в опасности / Mercury Rising (Харольд Беккер / Harold Becker) [1998, США, боевик, триллер, драма, BDRip 720p] Dub

в форуме 720p | 1080p, Размер: 7.46 ГБ, Здоровье: 0%

Anonymous

0
0|0

45
0

25 фев 2014, 22:41

Anonymous Перейти к последнему сообщению

В этой теме нет новых непрочитанных сообщений. Скачать торрент Проверен Linkin Park - Rock in Rio 2012 HDTVRip 720p [2012, Alternative - Rock, HDTVRip 720p]

в форуме Концерты (HD-Video), Размер: 4.47 ГБ, Здоровье: 100%

Anonymous

0
1|0

3
0

23 окт 2016, 11:09

Anonymous Перейти к последнему сообщению

В этой теме нет новых непрочитанных сообщений. Скачать торрент Проверен The Bangles - Dancing with the Stars (2011-10-17) HDTVRip 720p [2011, Rock/Pop, HDTVRip]

в форуме Концерты (HD-Video), Размер: 291.66 МБ, Здоровье: 100%

Anonymous

0
1|0

3
0

23 окт 2016, 13:17

Anonymous Перейти к последнему сообщению

В этой теме нет новых непрочитанных сообщений. Скачать торрент Проверен Daughtry - Live From California [HDTVRip 720p 22.01.2009] [2009, Rock, HDTVRip]

в форуме Концерты (HD-Video), Размер: 2.17 ГБ, Здоровье: 100%

Anonymous

0
2|1

2
0

23 окт 2016, 13:44

Anonymous Перейти к последнему сообщению



Сейчас этот форум просматривают: нет зарегистрированных пользователей и гости: 3


Вы не можете начинать темы
Вы не можете отвечать на сообщения
Вы не можете редактировать свои сообщения
Вы не можете удалять свои сообщения
Вы не можете добавлять вложения

Перейти:  

!ВНИМАНИЕ!
 Ресурс не предоставляет электронные версии произведений, а занимается лишь коллекционированием и каталогизацией ссылок, присылаемых и публикуемых на форуме нашими читателями. Если вы являетесь правообладателем какого-либо представленного материала и не желаете чтобы ссылка на него находилась в нашем каталоге, свяжитесь с нами и мы незамедлительно удалим её. Файлы для обмена на трекере предоставлены пользователями сайта, и администрация не несёт ответственности за их содержание. Просьба не заливать файлы, защищенные авторскими правами, а также файлы нелегального содержания!