На всех торрентах на трекере установлена скидка на скачивание в размере 100 процентов(а).
 Возможность скачивания торрента НЕ зависит от ограничений при низком ратио, низком аплоаде, требуемом ратио или требуемом аплоаде.


Начать новую тему Ответить на тему
Статистика раздачи
Размер: 10.63 ГБ | Добавлен: 12 ноя 2014, 19:59 | Скачали: 13
Сидеров: 33  [0 байт/сек]    Личеров: 51  [0 байт/сек]
Пред. тема | След. тема 

Автор
Сообщение

СообщениеДобавлено: 12 ноя 2014, 19:59 

Год выпуска: 1977
Производство: USA / Film Properties International N.V., Paramount Pictures, Universal Pictures
Жанр: боевик, драма, приключения

Режиссер: Уильям Фридкин
Актеры: Рой Шайдер, Бруно Кремер, Франсиско Рабаль, Амиду, Рамон Биери, Питер Кэпелл, Карл Джон, Фридрих фон Ледебур, Чико Мартинес, Джо Спинелл

Описание фильма: Нефтяная компания ищет водителей, готовых перевезти на грузовике груз со взрывчаткой. А четверо мужчин не могут вернуться в родные страны и по разным причинам вынуждены скрываться в Латинской Америке. Им нечего терять, но в случае успешного завершения операции каждый получит по 10 тысяч долларов и гражданство. Их ждут 200 миль дороги, где за каждым поворотом подстерегает опасность...

Перевод: авторский (одноголосый закадровый), любительский
Вид субтитров: вшитые отключаемые
Язык субтитров: русские, английские



Продолжительность: 02:01:31
Качество: BDRip (720p)

Видео: MPEG-4 AVC/H.264, 1280 x 720 (16:9), 10 000 kbps, 23.976 fps, 0.480 b/px
Аудио # 1: АС3, 2 ch, 192 kbps, 48 000 Hz [одноголосый закадровый (М.Иванов)]
Аудио # 2: АС3, 2 ch, 192 kbps, 48 000 Hz [одноголосый закадровый (Ю.Максимов)]
Аудио # 3: АС3, 6 ch, 640 kbps, 48 000 Hz [одноголосый закадровый (А.Матвеев 'Doctor Joker')]
Аудио # 4: АС3, 6 ch, 640 kbps, 48 000 Hz [оригинальный]

Общее
Уникальный идентификатор : 222634877728283802136725418773176172667 (0xA77DEAF2DB2636C48AD053E239F0C07B)
Полное имя : E:Video[1977] Колдун [BDRip] [720p].mkv
Формат : Matroska
Версия формата : Version 4 / Version 2
Размер файла : 10,6 Гбайт
Продолжительность : 2 ч. 1 м.
Общий поток : 12,5 Мбит/сек
Название фильма : Колдун / Sorcerer (1977) BDRip [720p]
Дата кодирования : UTC 2014-11-09 19:36:20
Программа кодирования : mkvmerge v7.2.0 ('On Every Street') 32bit built on Sep 13 2014 15:42:11
Библиотека кодирования : libebml v1.3.0 + libmatroska v1.4.1
DURATION : 01:40:52.004000000
NUMBER_OF_FRAMES : 427
NUMBER_OF_BYTES : 13334
_STATISTICS_WRITING_APP : mkvmerge v7.2.0 ('On Every Street') 32bit built on Sep 13 2014 15:42:11
_STATISTICS_WRITING_DATE_UTC : 2014-11-09 19:36:20
_STATISTICS_TAGS : BPS DURATION NUMBER_OF_FRAMES NUMBER_OF_BYTES

Видео
Идентификатор : 1
Формат : AVC
Формат/Информация : Advanced Video Codec
Профиль формата : High@L4.1
Параметр CABAC формата : Да
Параметр ReFrames формата : 9 кадров
Идентификатор кодека : V_MPEG4/ISO/AVC
Продолжительность : 2 ч. 1 м.
Битрейт : 10,6 Мбит/сек
Ширина : 1280 пикселей
Высота : 720 пикселей
Соотношение сторон : 16:9
Режим частоты кадров : Постоянный
Частота кадров : 23,976 кадра/сек
Цветовое пространство : YUV
Субдискретизация насыщенности : 4:2:0
Битовая глубина : 8 бит
Тип развёртки : Прогрессивная
Бит/(Пиксели*Кадры) : 0.480
Размер потока : 9,01 Гбайт (85%)
Заголовок : [1977] Колдун / Sorcerer [BDRip] [720p]
Библиотека кодирования : x264 core 142 r2409kMod d6b4e63
Настройки программы : cabac=1 / ref=9 / deblock=1:-3:-3 / analyse=0x3:0x133 / me=tesa / subme=10 / psy=1 / fade_compensate=0.00 / psy_rd=0.85:0.05 / mixed_ref=1 / me_range=24 / chroma_me=1 / trellis=2 / 8x8dct=1 / cqm=0 / deadzone=21,11 / fast_pskip=0 / chroma_qp_offset=-3 / threads=6 / lookahead_threads=1 / sliced_threads=0 / nr=0 / decimate=1 / interlaced=0 / bluray_compat=0 / constrained_intra=0 / fgo=0 / bframes=12 / b_pyramid=2 / b_adapt=2 / b_bias=0 / direct=3 / weightb=1 / open_gop=0 / weightp=2 / keyint=250 / keyint_min=23 / scenecut=40 / intra_refresh=0 / rc_lookahead=60 / rc=crf / mbtree=0 / crf=18.5000 / qcomp=0.70 / qpmin=0 / qpmax=69 / qpstep=4 / vbv_maxrate=62500 / vbv_bufsize=78125 / crf_max=0.0 / nal_hrd=none / filler=0 / ip_ratio=1.30 / pb_ratio=1.20 / aq=1:0.80
Язык : English
Default : Да
Forced : Нет
DURATION : 02:01:30.617000000
NUMBER_OF_FRAMES : 174800
NUMBER_OF_BYTES : 9899516492
_STATISTICS_WRITING_APP : mkvmerge v7.2.0 ('On Every Street') 32bit built on Sep 13 2014 15:42:11
_STATISTICS_WRITING_DATE_UTC : 2014-11-09 19:36:20
_STATISTICS_TAGS : BPS DURATION NUMBER_OF_FRAMES NUMBER_OF_BYTES

Аудио #1
Идентификатор : 2
Формат : AC-3
Формат/Информация : Audio Coding 3
Расширение режима : CM (complete main)
Параметр Endianness формата : Big
Идентификатор кодека : A_AC3
Продолжительность : 2 ч. 1 м.
Вид битрейта : Постоянный
Битрейт : 192 Кбит/сек
Каналы : 2 канала
Расположение каналов : Front: L R
Частота : 48,0 КГц
Битовая глубина : 16 бит
Метод сжатия : С потерями
Размер потока : 167 Мбайт (2%)
Заголовок : Одноголосый закадровый (М.Иванов)
Язык : Russian
Default : Да
Forced : Нет

Аудио #2
Идентификатор : 3
Формат : AC-3
Формат/Информация : Audio Coding 3
Расширение режима : CM (complete main)
Параметр Endianness формата : Big
Идентификатор кодека : A_AC3
Продолжительность : 2 ч. 1 м.
Вид битрейта : Постоянный
Битрейт : 192 Кбит/сек
Каналы : 2 канала
Расположение каналов : Front: L R
Частота : 48,0 КГц
Битовая глубина : 16 бит
Метод сжатия : С потерями
Размер потока : 167 Мбайт (2%)
Заголовок : Одноголосый закадровый (Ю.Максимов)
Язык : Russian
Default : Нет
Forced : Нет

Аудио #3
Идентификатор : 4
Формат : AC-3
Формат/Информация : Audio Coding 3
Расширение режима : CM (complete main)
Параметр Endianness формата : Big
Идентификатор кодека : A_AC3
Продолжительность : 2 ч. 1 м.
Вид битрейта : Постоянный
Битрейт : 640 Кбит/сек
Каналы : 6 каналов
Расположение каналов : Front: L C R, Side: L R, LFE
Частота : 48,0 КГц
Битовая глубина : 16 бит
Метод сжатия : С потерями
Размер потока : 556 Мбайт (5%)
Заголовок : Одноголосый закадровый (А.Матвеев 'Doctor Joker')
Язык : Russian
Default : Нет
Forced : Нет

Аудио #4
Идентификатор : 5
Формат : AC-3
Формат/Информация : Audio Coding 3
Расширение режима : CM (complete main)
Параметр Endianness формата : Big
Идентификатор кодека : A_AC3
Продолжительность : 2 ч. 1 м.
Вид битрейта : Постоянный
Битрейт : 640 Кбит/сек
Каналы : 6 каналов
Расположение каналов : Front: L C R, Side: L R, LFE
Частота : 48,0 КГц
Битовая глубина : 16 бит
Метод сжатия : С потерями
Размер потока : 556 Мбайт (5%)
Заголовок : Оригинальный
Язык : English
Default : Нет
Forced : Нет

Текст #1
Идентификатор : 6
Формат : UTF-8
Идентификатор кодека : S_TEXT/UTF8
Идентификатор кодека/Информация : UTF-8 Plain Text
Заголовок : Русские
Язык : Russian
Default : Нет
Forced : Нет

Текст #2
Идентификатор : 7
Формат : UTF-8
Идентификатор кодека : S_TEXT/UTF8
Идентификатор кодека/Информация : UTF-8 Plain Text
Заголовок : English
Язык : English
Default : Нет
Forced : Нет

Меню
00:00:00.000 : en:00:00:00.000
00:01:29.798 : en:00:01:29.798
00:06:37.480 : en:00:06:37.480
00:16:12.930 : en:00:16:12.930
00:24:14.078 : en:00:24:14.078
00:40:14.370 : en:00:40:14.370
00:47:30.431 : en:00:47:30.431
00:52:00.993 : en:00:52:00.993
00:55:00.380 : en:00:55:00.380
01:03:27.095 : en:01:03:27.095
01:08:41.951 : en:01:08:41.951
01:15:46.834 : en:01:15:46.834
01:26:33.688 : en:01:26:33.688
01:41:17.989 : en:01:41:17.989
01:43:30.121 : en:01:43:30.121
01:47:16.138 : en:01:47:16.138
01:54:05.922 : en:01:54:05.922
01:58:32.105 : en:01:58:32.105
загрузка...
Правила, инструкции, FAQ!!!
Торрент  Добавлен [12 ноя 2014, 19:59] Скачать торрент
Скачать торрент
[ Размер 27.87 КБ / Просмотров 16 ]

Статус
Проверен 
 
Размер  10.63 ГБ
Приватный: Нет (DHT включён)
.torrent скачан  13
Как залить торрент? | Как скачать Torrent? | Как смотреть и слушать онлайн?  


     Отправить личное сообщение
   
Страница 1 из 1
Показать сообщения за:  Поле сортировки  
Начать новую тему Ответить на тему

   Похожие торренты   Автор   Ответы   Просмотры   Последнее сообщение 
В этой теме нет новых непрочитанных сообщений. Скачать торрент Проверен Колдун / Sorcerer (1977) HDRip | A

в форуме Боевики, Размер: 1.37 ГБ, Здоровье: 100%

Anonymous

0
30|1

49
4

13 ноя 2014, 00:55

Anonymous Перейти к последнему сообщению

В этой теме нет новых непрочитанных сообщений. Скачать торрент Ученик чародея / The Sorcerer's Apprentice (2010) BDRip 720p | D, A

в форуме 720p | 1080p, Размер: 4.64 ГБ, Здоровье: 0%

Anonymous

0
0|0

44
1

17 дек 2013, 22:55

Anonymous Перейти к последнему сообщению

В этой теме нет новых непрочитанных сообщений. Скачать торрент Проверен (Heavy Metal) Sorcerer - Sorcerer - 2011, MP3, 192 kbps

в форуме Heavy, Power, Progressive (Metal), Размер: 107.35 МБ, Здоровье: 0%

Anonymous

0
0|0

0
0

09 окт 2016, 09:12

Anonymous Перейти к последнему сообщению

В этой теме нет новых непрочитанных сообщений. Скачать торрент Проверен The Who: At Kilburn 1977 (720p) [2008, Rock, BDRip]

в форуме Концерты (HD-Video), Размер: 8.58 ГБ, Здоровье: 0%

Anonymous

0
0|0

1
0

23 окт 2016, 11:23

Anonymous Перейти к последнему сообщению

В этой теме нет новых непрочитанных сообщений. Скачать торрент Проверен Страсть к вуду / Der Ruf der blonden Göttin (1977) BDRip 720p | A

в форуме 720p | 1080p, Размер: 3.96 ГБ, Здоровье: 0%

Anonymous

0
1|136

44
0

14 ноя 2014, 18:37

Anonymous Перейти к последнему сообщению



Сейчас этот форум просматривают: нет зарегистрированных пользователей и гости: 2


Вы не можете начинать темы
Вы не можете отвечать на сообщения
Вы не можете редактировать свои сообщения
Вы не можете удалять свои сообщения
Вы не можете добавлять вложения

Перейти:  

!ВНИМАНИЕ!
 Ресурс не предоставляет электронные версии произведений, а занимается лишь коллекционированием и каталогизацией ссылок, присылаемых и публикуемых на форуме нашими читателями. Если вы являетесь правообладателем какого-либо представленного материала и не желаете чтобы ссылка на него находилась в нашем каталоге, свяжитесь с нами и мы незамедлительно удалим её. Файлы для обмена на трекере предоставлены пользователями сайта, и администрация не несёт ответственности за их содержание. Просьба не заливать файлы, защищенные авторскими правами, а также файлы нелегального содержания!