На всех торрентах на трекере установлена скидка на скачивание в размере 100 процентов(а).
 Возможность скачивания торрента НЕ зависит от ограничений при низком ратио, низком аплоаде, требуемом ратио или требуемом аплоаде.


Начать новую тему Ответить на тему
Статистика раздачи
Размер: 7.88 ГБ | Добавлен: 11 ноя 2014, 22:10 | Скачали: 1
Сидеров: 1  [0 байт/сек]    Личеров: 112  [0 байт/сек]
Пред. тема | След. тема 

Автор
Сообщение

СообщениеДобавлено: 11 ноя 2014, 22:10 

Название: Ультрафиолет
Оригинальное название: Ultraviolet
Год выхода: 2006
Жанр: Фантастика, боевик
Режиссер: Курт Уиммер

В ролях: Милла Йовович, Кэмерон Брайт, Ник Чинланд, Себастьен Эндриё, Ида Мартин, Уильям Фихтнер, Дэвид Колье, Диггер Мещ, Райан Мартин, Стивен Кэлкот, Рикардо Мамуд, Майк Смит, Клэй Каллен, Дженнифер Капуто, Джек Мерфи, Абрахам Бойд, Мэттью Старгесс, Алекс Ки, Пит Спурье, Расселл Уэйт, Юлия Галенко, Люк Джексон, Крис Гарнер, Дюк Луу, Курт Уиммер, Джилад Лотан, Филлип Мур, Роберт Алонсо, Мишель Гулд, Дэниэл Хоу, Скотт Пайпер, Игорь Смилжевич, Дон Фергюсон

О фильме:
Конец XXI века. На Земле бушует ожесточенная война между обычными людьми и новым подвидом людей-вампиров. Непобедимый вирус, детище коварных спецслужб, способен в одночасье наделить любого человека невероятной силой, фантастической ловкостью и несравненным интеллектом. Однако за невероятные способности подопытные расплачиваются собственной жизнью. Жертвы глобальной эпидемии обречены на уничтожение, но бесстрашные повстанцы намерены бороться до конца. Среди них - отважная Вайолет. У нее есть всего 36 часов на то, чтобы выполнить свою последнюю миссию. Одна неуязвимая красавица против армии спецагентов в мире, стоящем на краю бездны - решающий элемент в смертельном противостоянии людей и суперменов!



Страна: США, Screen Gems, Ultravi Productions Inc.
Продолжительность: 01:34:27
Перевод: Профессиональный двухголосый (Киномания) / Профессиональный двухголосый (Tycoon) / Авторский одноголосый (Немахов)

Кодек: H.264
Качество: BDRip 1080p
Видео: MPEG-4 AVC, 9000 Кбит/с, 1920х1032, 23.976 кадр/с
Звук: Русский (DTS, 6 ch, 755 Кбит/с), (AC3, 6 ch, 640 Кбит/с), английский (DTS, 6 ch, 755 Кбит/с)
Субтитры: Русские (форсированные, полные), английские

Полное имя : D:Раздачи_DUltraviolet.2006.x264.BDRip.1080p.NovaLan.mkv
Формат : Matroska
Версия формата : Version 4 / Version 2
Размер файла : 7,88 Гбайт
Продолжительность : 1 ч. 34 м.
Общий поток : 11,9 Мбит/сек
Название фильма : Ultraviolet 2006 - NovaLan
Дата кодирования : UTC 2014-11-11 12:20:24
Программа кодирования : mkvmerge v7.3.0 ('Nouages') 64bit built on Oct 22 2014 18:53:34
Библиотека кодирования : libebml v1.3.0 + libmatroska v1.4.1
DURATION : 01:27:33.957000000
NUMBER_OF_FRAMES : 743
NUMBER_OF_BYTES : 26455
_STATISTICS_WRITING_APP : mkvmerge v7.3.0 ('Nouages') 64bit built on Oct 22 2014 18:53:34
_STATISTICS_WRITING_DATE_UTC : 2014-11-11 12:20:24
_STATISTICS_TAGS : BPS DURATION NUMBER_OF_FRAMES NUMBER_OF_BYTES

Видео
Идентификатор : 1
Формат : AVC
Формат/Информация : Advanced Video Codec
Профиль формата : High@L4.1
Параметр CABAC формата : Да
Параметр ReFrames формата : 4 кадра
Идентификатор кодека : V_MPEG4/ISO/AVC
Продолжительность : 1 ч. 34 м.
Битрейт : 9000 Кбит/сек
Ширина : 1920 пикселей
Высота : 1032 пикселя
Соотношение сторон : 1,85:1
Частота кадров : 23,976 кадра/сек
Цветовое пространство : YUV
Субдискретизация насыщенности : 4:2:0
Битовая глубина : 8 бит
Тип развёртки : Прогрессивная
Бит/(Пиксели*Кадры) : 0.189
Размер потока : 5,81 Гбайт (74%)
Заголовок : Sergei7721
Библиотека кодирования : x264 core 133 r2334 a3ac64b
Настройки программы : cabac=1 / ref=4 / deblock=1:-1:-1 / analyse=0x3:0x113 / me=umh / subme=11 / psy=1 / psy_rd=1.00:0.20 / mixed_ref=1 / me_range=24 / chroma_me=1 / trellis=2 / 8x8dct=1 / cqm=0 / deadzone=21,11 / fast_pskip=0 / chroma_qp_offset=-3 / threads=12 / lookahead_threads=1 / sliced_threads=0 / nr=0 / decimate=0 / interlaced=0 / bluray_compat=0 / constrained_intra=0 / bframes=6 / b_pyramid=2 / b_adapt=2 / b_bias=0 / direct=3 / weightb=1 / open_gop=0 / weightp=2 / keyint=240 / keyint_min=23 / scenecut=40 / intra_refresh=0 / rc_lookahead=40 / rc=2pass / mbtree=0 / bitrate=9000 / ratetol=1.0 / qcomp=0.60 / qpmin=0 / qpmax=69 / qpstep=4 / cplxblur=20.0 / qblur=0.5 / vbv_maxrate=50000 / vbv_bufsize=62500 / nal_hrd=none / ip_ratio=1.40 / pb_ratio=1.30 / aq=1:1.00
Default : Да
Forced : Нет
DURATION : 01:34:27.662000000
NUMBER_OF_FRAMES : 135888
NUMBER_OF_BYTES : 6372513411
_STATISTICS_WRITING_APP : mkvmerge v7.3.0 ('Nouages') 64bit built on Oct 22 2014 18:53:34
_STATISTICS_WRITING_DATE_UTC : 2014-11-11 12:20:24
_STATISTICS_TAGS : BPS DURATION NUMBER_OF_FRAMES NUMBER_OF_BYTES

Аудио #1
Идентификатор : 2
Формат : DTS
Формат/Информация : Digital Theater Systems
Идентификатор кодека : A_DTS
Продолжительность : 1 ч. 34 м.
Вид битрейта : Постоянный
Битрейт : 755 Кбит/сек
Каналы : 6 каналов
Расположение каналов : Front: L C R, Side: L R, LFE
Частота : 48,0 КГц
Битовая глубина : 24 бит
Метод сжатия : С потерями
Размер потока : 510 Мбайт (6%)
Язык : Russian
Default : Да
Forced : Нет

Аудио #2
Идентификатор : 3
Формат : DTS
Формат/Информация : Digital Theater Systems
Идентификатор кодека : A_DTS
Продолжительность : 1 ч. 34 м.
Вид битрейта : Постоянный
Битрейт : 755 Кбит/сек
Каналы : 6 каналов
Расположение каналов : Front: L C R, Side: L R, LFE
Частота : 48,0 КГц
Битовая глубина : 24 бит
Метод сжатия : С потерями
Размер потока : 510 Мбайт (6%)
Язык : Russian
Default : Нет
Forced : Нет

Аудио #3
Идентификатор : 4
Формат : AC-3
Формат/Информация : Audio Coding 3
Расширение режима : CM (complete main)
Параметр Endianness формата : Big
Идентификатор кодека : A_AC3
Продолжительность : 1 ч. 34 м.
Вид битрейта : Постоянный
Битрейт : 640 Кбит/сек
Каналы : 6 каналов
Расположение каналов : Front: L C R, Side: L R, LFE
Частота : 48,0 КГц
Битовая глубина : 16 бит
Метод сжатия : С потерями
Размер потока : 432 Мбайт (5%)
Язык : Russian
Default : Нет
Forced : Нет

Аудио #4
Идентификатор : 5
Формат : DTS
Формат/Информация : Digital Theater Systems
Идентификатор кодека : A_DTS
Продолжительность : 1 ч. 34 м.
Вид битрейта : Постоянный
Битрейт : 755 Кбит/сек
Каналы : 6 каналов
Расположение каналов : Front: L C R, Side: L R, LFE
Частота : 48,0 КГц
Битовая глубина : 24 бит
Метод сжатия : С потерями
Размер потока : 510 Мбайт (6%)
Язык : English
Default : Нет
Forced : Нет

Текст #1
Идентификатор : 6
Формат : UTF-8
Идентификатор кодека : S_TEXT/UTF8
Идентификатор кодека/Информация : UTF-8 Plain Text
Язык : Russian
Default : Да
Forced : Да

Текст #2
Идентификатор : 7
Формат : UTF-8
Идентификатор кодека : S_TEXT/UTF8
Идентификатор кодека/Информация : UTF-8 Plain Text
Язык : Russian
Default : Нет
Forced : Нет

Текст #3
Идентификатор : 8
Формат : UTF-8
Идентификатор кодека : S_TEXT/UTF8
Идентификатор кодека/Информация : UTF-8 Plain Text
Язык : English
Default : Нет
Forced : Нет

Меню
00:00:00.000 : en:00:00:00.000
00:05:33.208 : en:00:05:33.208
00:12:06.726 : en:00:12:06.726
00:18:26.439 : en:00:18:26.439
00:21:32.291 : en:00:21:32.291
00:30:36.752 : en:00:30:36.752
00:34:35.991 : en:00:34:35.991
00:42:02.770 : en:00:42:02.770
00:47:27.178 : en:00:47:27.178
00:50:44.124 : en:00:50:44.124
00:56:31.763 : en:00:56:31.763
01:02:03.511 : en:01:02:03.511
01:05:05.568 : en:01:05:05.568
01:14:11.364 : en:01:14:11.364
01:18:56.815 : en:01:18:56.815
01:25:32.127 : en:01:25:32.127
01:30:15.452 : en:01:30:15.452
01:34:27.495 : en:01:34:27.495


Релиз группы NovaLan
Автор релиза Sergei7721




загрузка...
Правила, инструкции, FAQ!!!
Торрент  Добавлен [11 ноя 2014, 22:10] Скачать торрент
Скачать торрент
[ Размер 39.92 КБ / Просмотров 11 ]

Статус
Проверен 
 
Размер  7.88 ГБ
Приватный: Нет (DHT включён)
.torrent скачан  1
Как залить торрент? | Как скачать Torrent? | Как смотреть и слушать онлайн?  


     Отправить личное сообщение
   
Страница 1 из 1
Показать сообщения за:  Поле сортировки  
Начать новую тему Ответить на тему

   Похожие торренты   Автор   Ответы   Просмотры   Последнее сообщение 
В этой теме нет новых непрочитанных сообщений. Скачать торрент Проверен Ультрафиолет / Ultraviolet [Unrated] (2006) BDRip

в форуме Фантастика, Фэнтези, Размер: 1.45 ГБ, Здоровье: 100%

Anonymous

0
28|1

60
7

11 ноя 2014, 22:16

Anonymous Перейти к последнему сообщению

В этой теме нет новых непрочитанных сообщений. Скачать торрент Код Да Винчи / The Da Vinci Code (2006) BDRip 1080p | Расширенная версия / Extended Cut

в форуме 720p | 1080p, Размер: 7.94 ГБ, Здоровье: 100%

Anonymous

0
45|4

56
89

05 фев 2014, 21:49

Anonymous Перейти к последнему сообщению

В этой теме нет новых непрочитанных сообщений. Скачать торрент Проверен Команда «А» / The A-Team (2010) BDRip 1080p | Расширенная версия

в форуме 720p | 1080p, Размер: 11.54 ГБ, Здоровье: 100%

Гость

0
23|3

30
101

01 дек 2014, 17:21

Гость Перейти к последнему сообщению

В этой теме нет новых непрочитанных сообщений. Скачать торрент Код да Винчи / The Da Vinci Code (Рон Ховард / Ron Howard) [2006 г., триллер, детектив, BDRip] [расширенная версия / extended edition] Dub (вставки MVO)

в форуме Триллеры, Размер: 2.18 ГБ, Здоровье: 100%

Anonymous

0
56|19

54
0

12 фев 2014, 11:45

Anonymous Перейти к последнему сообщению

В этой теме нет новых непрочитанных сообщений. Скачать торрент Проверен Джиа / Gia (1998) BDRip 720p | P2, A | Расширенная версия

в форуме 720p | 1080p, Размер: 8.33 ГБ, Здоровье: 100%

Anonymous

0
11|0

42
82

09 ноя 2014, 15:29

Anonymous Перейти к последнему сообщению



Сейчас этот форум просматривают: нет зарегистрированных пользователей и гости: 4


Вы не можете начинать темы
Вы не можете отвечать на сообщения
Вы не можете редактировать свои сообщения
Вы не можете удалять свои сообщения
Вы не можете добавлять вложения

Перейти:  

!ВНИМАНИЕ!
 Ресурс не предоставляет электронные версии произведений, а занимается лишь коллекционированием и каталогизацией ссылок, присылаемых и публикуемых на форуме нашими читателями. Если вы являетесь правообладателем какого-либо представленного материала и не желаете чтобы ссылка на него находилась в нашем каталоге, свяжитесь с нами и мы незамедлительно удалим её. Файлы для обмена на трекере предоставлены пользователями сайта, и администрация не несёт ответственности за их содержание. Просьба не заливать файлы, защищенные авторскими правами, а также файлы нелегального содержания!