На всех торрентах на трекере установлена скидка на скачивание в размере 100 процентов(а).
 Возможность скачивания торрента НЕ зависит от ограничений при низком ратио, низком аплоаде, требуемом ратио или требуемом аплоаде.


Начать новую тему Ответить на тему
Статистика раздачи
Размер: 7.41 ГБ | Добавлен: 11 ноя 2014, 21:55 | Скачали: 40
Сидеров: 12  [0 байт/сек]    Личеров: 0  [0 байт/сек]
Пред. тема | След. тема 

Автор
Сообщение

СообщениеДобавлено: 11 ноя 2014, 21:55 

Название: Свинг-герлз (Свингующие девушки)
Оригинальное название: Swing Girls
Год выпуска: 2004
Жанр: Драма, комедия, музыка
Режиссер: Синобу Ягути
В ролях: Джури Уено, Юта Хираока, Шихори Канджия, Юика Мотокария, Юкари Тойошима, Нагиса Абе, Норико Егучи, Хана Кино, Фумиё Кохината, Фумико Мизута , Наоми Нишида, Мицуко Сакура

О фильме: Жизнеутверждающая молодежная комедия о жизни школьников в японской глубинке. Школьный джаз-оркестр отправляется на соревнования по бейсболу, чтобы поддержать свою команду. Но произошло непредвиденное — музыканты по дороге съели что-то не то и в полном составе слегли. Томоко и ее подруги решают постоять за честь школы, а заодно избежать дополнительных занятий по математике и берутся за инструменты. Они подготовились к выступлению, но в самый решающий момент им приходится уступить место не ко времени выздоровевшим оркестрантам. Однако Томоко и другие девушки уже увлечены музыкой и не намерены отступать.



Страна: Япония
Студия: Altamira Pictures Inc., DENTSU Music And Entertainment Inc.,Fuji Television Network Inc., Toho Company
Продолжительность: 01:44:47
Перевод: Любительский одноголосый (DeMon)


Кодек: x264
Качество: BDRip (1080р)
Видео: MPEG-4 AVC, 8846 Кбит/с, 1920x1038, 23.976 кадр/с
Аудио #1: Русский (AC3, 6 ch, 640 Кбит/с) / Любительский одноголосый (DeMon)
Аудио #2: Японский (AC3, 6 ch, 640 Кбит/с)
Субтитры: Русские, английские

Семпл

x264 [info]: frame I:1111 Avg QP:16.88 size: 89796
x264 [info]: frame P:46346 Avg QP:18.27 size: 27744
x264 [info]: frame B:103285 Avg QP:20.67 size: 7177

=================================

x264 [info]: frame I:1062 Avg QP:16.62 size:255428
x264 [info]: frame P:34930 Avg QP:19.38 size: 95740
x264 [info]: frame B:114750 Avg QP:21.65 size: 29070

==================================

Уникальный идентификатор : 190726308962891549796044522056963408629 (0x8F7C8D0BCE8EA506A2438A86410942F5)
Полное имя : E:MCSwingujusie.dewuschki.2004.x264.BDRip(1080p)-MediaClubSwingujusie.dewuschki.2004.x264.BDRip(1080p)-MediaClub.mkv
Формат : Matroska
Версия формата : Version 4 / Version 2
Размер файла : 7,41 Гбайт
Продолжительность : 1 ч. 44 м.
Общий поток : 10,1 Мбит/сек
Название фильма : -= Release MediaClub =-
Дата кодирования : UTC 2014-11-03 19:52:48
Программа кодирования : mkvmerge v7.3.0 ('Nouages') 64bit built on Oct 22 2014 18:53:34
Библиотека кодирования : libebml v1.3.0 + libmatroska v1.4.1
DURATION : 01:44:47.296000000
NUMBER_OF_FRAMES : 196478
NUMBER_OF_BYTES : 502983680
_STATISTICS_WRITING_APP : mkvmerge v7.3.0 ('Nouages') 64bit built on Oct 22 2014 18:53:34
_STATISTICS_WRITING_DATE_UTC : 2014-11-03 19:52:48
_STATISTICS_TAGS : BPS DURATION NUMBER_OF_FRAMES NUMBER_OF_BYTES
Attachment : Yes

Видео
Идентификатор : 1
Формат : AVC
Формат/Информация : Advanced Video Codec
Профиль формата : High@L4.1
Параметр CABAC формата : Да
Параметр ReFrames формата : 4 кадра
Идентификатор кодека : V_MPEG4/ISO/AVC
Продолжительность : 1 ч. 44 м.
Битрейт : 8846 Кбит/сек
Ширина : 1920 пикселей
Высота : 1038 пикселей
Соотношение сторон : 1,85:1
Режим частоты кадров : Постоянный
Частота кадров : 23,976 кадра/сек
Цветовое пространство : YUV
Субдискретизация насыщенности : 4:2:0
Битовая глубина : 8 бит
Тип развёртки : Прогрессивная
Бит/(Пиксели*Кадры) : 0.185
Размер потока : 6,33 Гбайт (85%)
Заголовок : Swingujusie.dewuschki.2004.x264.BDRip(1080p)-neni
Библиотека кодирования : x264 core 142 r2409+42 04be48a tMod [8-bit@4:2:0 X86_64]
Настройки программы : cabac=1 / ref=4 / deblock=1:-3:-3 / analyse=0x3:0x133 / me=umh / subme=11 / psy=1 / fade_compensate=0.00 / psy_rd=1.00:0.15 / mixed_ref=1 / me_range=48 / chroma_me=1 / trellis=2 / 8x8dct=1 / cqm=0 / deadzone=21,11 / fast_pskip=0 / chroma_qp_offset=-3 / threads=9 / lookahead_threads=1 / sliced_threads=0 / nr=0 / decimate=0 / interlaced=0 / bluray_compat=0 / constrained_intra=0 / fgo=0 / bframes=8 / b_pyramid=2 / b_adapt=2 / b_bias=0 / direct=3 / weightb=1 / open_gop=0 / weightp=2 / keyint=240 / keyint_min=23 / scenecut=40 / intra_refresh=0 / rc=2pass / mbtree=0 / bitrate=8846 / ratetol=1.0 / qcomp=0.60 / qpmin=0:0:0 / qpmax=69:69:69 / qpstep=4 / cplxblur=20.0 / qblur=0.5 / ip_ratio=1.40 / pb_ratio=1.30 / aq=2:1.00 / aq-sensitivity=10.00 / aq-factor=1.00:1.00:1.00 / aq2=0 / aq3=0
Язык : Japanese
Default : Да
Forced : Нет
DURATION : 01:44:47.198000000
NUMBER_OF_FRAMES : 150742
NUMBER_OF_BYTES : 6951316253
_STATISTICS_WRITING_APP : mkvmerge v7.3.0 ('Nouages') 64bit built on Oct 22 2014 18:53:34
_STATISTICS_WRITING_DATE_UTC : 2014-11-03 19:52:48
_STATISTICS_TAGS : BPS DURATION NUMBER_OF_FRAMES NUMBER_OF_BYTES

Аудио #1
Идентификатор : 2
Формат : AC-3
Формат/Информация : Audio Coding 3
Расширение режима : CM (complete main)
Параметр Endianness формата : Big
Идентификатор кодека : A_AC3
Продолжительность : 1 ч. 44 м.
Вид битрейта : Постоянный
Битрейт : 640 Кбит/сек
Каналы : 6 каналов
Расположение каналов : Front: L C R, Side: L R, LFE
Частота : 48,0 КГц
Битовая глубина : 16 бит
Метод сжатия : С потерями
Размер потока : 480 Мбайт (6%)
Заголовок : • Русский (AC3, 6 ch, 640 Кбит/с) - ЛО (DeMon)
Язык : Russian
Default : Да
Forced : Нет

Аудио #2
Идентификатор : 3
Формат : AC-3
Формат/Информация : Audio Coding 3
Расширение режима : CM (complete main)
Параметр Endianness формата : Big
Идентификатор кодека : A_AC3
Продолжительность : 1 ч. 44 м.
Вид битрейта : Постоянный
Битрейт : 640 Кбит/сек
Каналы : 6 каналов
Расположение каналов : Front: L C R, Side: L R, LFE
Частота : 48,0 КГц
Битовая глубина : 16 бит
Метод сжатия : С потерями
Размер потока : 480 Мбайт (6%)
Заголовок : • Японский (AC3, 6 ch, 640 Кбит/с) - (Original from BD)
Язык : Japanese
Default : Нет
Forced : Нет

Текст #1
Идентификатор : 4
Формат : UTF-8
Идентификатор кодека : S_TEXT/UTF8
Идентификатор кодека/Информация : UTF-8 Plain Text
Язык : Russian
Default : Нет
Forced : Нет

Текст #2
Идентификатор : 5
Формат : UTF-8
Идентификатор кодека : S_TEXT/UTF8
Идентификатор кодека/Информация : UTF-8 Plain Text
Язык : English
Default : Нет
Forced : Нет

Меню
00:00:00.000 : :Chapter 01
00:05:00.000 : :Chapter 02
00:10:00.000 : :Chapter 03
00:15:00.000 : :Chapter 04
00:20:00.000 : :Chapter 05
00:25:00.000 : :Chapter 06
00:30:00.000 : :Chapter 07
00:35:00.000 : :Chapter 08
00:40:00.000 : :Chapter 09
00:45:00.000 : :Chapter 10
00:50:00.000 : :Chapter 11
00:55:00.000 : :Chapter 12
01:00:00.000 : :Chapter 13
01:05:00.000 : :Chapter 14
01:10:00.000 : :Chapter 15
01:15:00.000 : :Chapter 16
01:20:00.000 : :Chapter 17
01:25:00.000 : :Chapter 18
01:30:00.000 : :Chapter 19
01:35:00.000 : :Chapter 20
01:40:00.000 : :Chapter 21

загрузка...
Правила, инструкции, FAQ!!!
Торрент  Добавлен [11 ноя 2014, 21:55] Скачать торрент
Скачать торрент
[ Размер 19.21 КБ / Просмотров 16 ]

Статус
Проверен 
 
Размер  7.41 ГБ
Приватный: Нет (DHT включён)
.torrent скачан  40
Как залить торрент? | Как скачать Torrent? | Как смотреть и слушать онлайн?  


     Отправить личное сообщение
   
Страница 1 из 1
Показать сообщения за:  Поле сортировки  
Начать новую тему Ответить на тему

   Похожие торренты   Автор   Ответы   Просмотры   Последнее сообщение 
В этой теме нет новых непрочитанных сообщений. Скачать торрент Проверен Свинг-герлз / Свингующие девушки / Swing Girls (2004) BDRip-AVC | L1

в форуме Драмы, Мелодрамы, Размер: 2.63 ГБ, Здоровье: 100%

Anonymous

0
5|0

100
12

06 ноя 2014, 23:54

Anonymous Перейти к последнему сообщению

В этой теме нет новых непрочитанных сообщений. Скачать торрент Проверен Девушки Пентхауса представляют: Сексуальное белье 3D / Penthouse Girls prasentieren Sexy Dessous (2012) BDRip 1080p | 3D-Video

в форуме HD-Video в 3D, Размер: 3.29 ГБ, Здоровье: 100%

Anonymous

0
70|4

195
31

03 ноя 2014, 23:33

Anonymous Перейти к последнему сообщению

В этой теме нет новых непрочитанных сообщений. Скачать торрент Проверен Красивые девушки / Beautiful Girls (1996) BDRip-AVC | P2

в форуме Драмы, Мелодрамы, Размер: 2.91 ГБ, Здоровье: 100%

Anonymous

0
12|3

138
0

28 сен 2014, 22:51

Anonymous Перейти к последнему сообщению

В этой теме нет новых непрочитанных сообщений. Скачать торрент Проверен VA - Girls! Girls! Girls! The Best of Burlesque & Striptease Music vol. 1-2 (2008, 2013) [FLAC|Lossless]<Pop, Jazz, Swing>

в форуме Зарубежная музыка, Размер: 815.35 МБ, Здоровье: 0%

Гость

0
0|0

61
0

12 янв 2015, 22:04

Гость Перейти к последнему сообщению

В этой теме нет новых непрочитанных сообщений. Скачать торрент Проверен [iPad] Красивые девушки / Beautiful Girls (Тед Демме / Ted Demme ) [1996, США, драма, мелодрама, комедия, BDRip, SD (576p)] DVO + Original + sub rus

в форуме Фильмы для iPod, iPhone, iPad, Размер: 1.94 ГБ, Здоровье: 100%

Гость

0
5|2

125
0

11 май 2015, 01:24

Гость Перейти к последнему сообщению



Сейчас этот форум просматривают: нет зарегистрированных пользователей и гости: 1


Вы не можете начинать темы
Вы не можете отвечать на сообщения
Вы не можете редактировать свои сообщения
Вы не можете удалять свои сообщения
Вы не можете добавлять вложения

Перейти:  

!ВНИМАНИЕ!
 Ресурс не предоставляет электронные версии произведений, а занимается лишь коллекционированием и каталогизацией ссылок, присылаемых и публикуемых на форуме нашими читателями. Если вы являетесь правообладателем какого-либо представленного материала и не желаете чтобы ссылка на него находилась в нашем каталоге, свяжитесь с нами и мы незамедлительно удалим её. Файлы для обмена на трекере предоставлены пользователями сайта, и администрация не несёт ответственности за их содержание. Просьба не заливать файлы, защищенные авторскими правами, а также файлы нелегального содержания!