На всех торрентах на трекере установлена скидка на скачивание в размере 100 процентов(а).
 Возможность скачивания торрента НЕ зависит от ограничений при низком ратио, низком аплоаде, требуемом ратио или требуемом аплоаде.


Начать новую тему Ответить на тему
Статистика раздачи
Размер: 7.95 ГБ | Добавлен: 11 ноя 2014, 17:12 | Скачали: 96
Сидеров: 29  [0 байт/сек]    Личеров: 0  [0 байт/сек]
Пред. тема | След. тема 

Автор
Сообщение

СообщениеДобавлено: 11 ноя 2014, 17:12 

Название: Спасатель
Оригинальное название: The Guardian
Год выхода: 2006
Жанр: Боевик, драма, приключения
Режиссер: Эндрю Дэвис
В ролях: Кевин Костнер, Эштон Катчер, Клэнси Браун, Сила Уорд, Брайан Герати, Джон Херд, Бонни Брэмлетт, Брайан Уэйд, Шелби Феннер, Нил МакДонаф, Мелисса Сэйджмиллер, Джастин Робертс

Сюжет фильма:

Бен Рэнделл, легендарный пловец-спасатель когда-то в ужасной катастрофе потерял всю свою команду. Чтобы найти свое место в жизни, и забыть о том страшном событии, он решает пойти в Береговую охрану, где в его обязанности входит тренировка молодых спасателей. Здесь, он сталкивается с молодым и талантливым пловцом «с характером» Джейком Фишером. В процессе обучения Бен помогает Джейку скомбинировать его характер с его способностями. В конце обучения они вдвоем отправляются к Аляске, в Берингово море, где Джейку придется пройти самое важное испытание…



Выпущено: США, Touchstone Pictures
Продолжительность: 02:19:04
Перевод: Дублированный, Английский

Качество: BDRip 1080p (исходник Blu-ray Disc)
Видео: 1920х1036, 7 159 кбит/сек, 23.976 кадр/сек, AVC, x264, 0.150 Бит/(Пиксели*Кадры), 2-pass
Аудио1: AC-3, 448 Кбит/сек, 6 канала(ов), 48,0 КГц - Дублированный - (по умолчанию)
Аудио2: AC-3, 640 Кбит/сек, 6 канала(ов), 48,0 КГц - Английский

Субтитры: Русские (2 вида)



Format : Matroska
Format version : Version 4 / Version 2
File size : 7.95 GiB
Duration : 2h 19mn
Overall bit rate : 8 185 Kbps
Movie name : Спасатель.(2006).BDRip.1080p.NoLimits-Team
Encoded date : UTC 2013-07-11 07:13:15
Writing application : mkvmerge v6.3.0 ('You can't stop me!') built on Jun 28 2013 20:09:41
Writing library : libebml v1.3.0 + libmatroska v1.4.0

Video
ID : 1
Format : AVC
Format/Info : Advanced Video Codec
Format profile : High@L4.1
Format settings, CABAC : Yes
Format settings, ReFrames : 4 frames
Codec ID : V_MPEG4/ISO/AVC
Duration : 2h 19mn
Bit rate : 7 159 Kbps
Width : 1 920 pixels
Height : 1 036 pixels
Display aspect ratio : 1.85:1
Frame rate mode : Constant
Frame rate : 23.976 fps
Color space : YUV
Chroma subsampling : 4:2:0
Bit depth : 8 bits
Scan type : Progressive
Bits/(Pixel*Frame) : 0.150
Stream size : 6.80 GiB (85%)
Title : Спасатель.(2006).BDRip.1080p от NoLimits-Team Release_denis_100
Writing library : x264 core 133 r2334 a3ac64b
Encoding settings : cabac=1 / ref=4 / deblock=1:0:0 / analyse=0x3:0x113 / me=umh / subme=11 / psy=1 / psy_rd=1.00:0.10 / mixed_ref=1 / me_range=64 / chroma_me=1 / trellis=2 / 8x8dct=1 / cqm=0 / deadzone=21,11 / fast_pskip=0 / chroma_qp_offset=-3 / threads=6 / lookahead_threads=1 / sliced_threads=0 / nr=0 / decimate=0 / interlaced=0 / bluray_compat=0 / constrained_intra=0 / bframes=12 / b_pyramid=2 / b_adapt=2 / b_bias=0 / direct=3 / weightb=1 / open_gop=0 / weightp=2 / keyint=240 / keyint_min=23 / scenecut=40 / intra_refresh=0 / rc_lookahead=60 / rc=2pass / mbtree=1 / bitrate=7159 / ratetol=1.0 / qcomp=0.60 / qpmin=0 / qpmax=69 / qpstep=4 / cplxblur=20.0 / qblur=0.5 / ip_ratio=1.40 / aq=1:0.95
Language : English
Default : Yes
Forced : No

Audio #1
ID : 2
Format : AC-3
Format/Info : Audio Coding 3
Mode extension : CM (complete main)
Format settings, Endianness : Big
Codec ID : A_AC3
Duration : 2h 19mn
Bit rate mode : Constant
Bit rate : 384 Kbps
Channel(s) : 6 channels
Channel positions : Front: L C R, Side: L R, LFE
Sampling rate : 48.0 KHz
Bit depth : 16 bits
Compression mode : Lossy
Stream size : 382 MiB (5%)
Title : Дублированный
Language : Russian
Default : Yes
Forced : No

Audio #2
ID : 3
Format : AC-3
Format/Info : Audio Coding 3
Mode extension : CM (complete main)
Format settings, Endianness : Big
Codec ID : A_AC3
Duration : 2h 19mn
Bit rate mode : Constant
Bit rate : 640 Kbps
Channel(s) : 6 channels
Channel positions : Front: L C R, Side: L R, LFE
Sampling rate : 48.0 KHz
Bit depth : 16 bits
Compression mode : Lossy
Stream size : 637 MiB (8%)
Title : Английский
Language : English
Default : No
Forced : No

Text #1
ID : 4
Format : UTF-8
Codec ID : S_TEXT/UTF8
Codec ID/Info : UTF-8 Plain Text
Title : Русские
Language : Russian
Default : No
Forced : No

Text #2
ID : 5
Format : UTF-8
Codec ID : S_TEXT/UTF8
Codec ID/Info : UTF-8 Plain Text
Title : Русские
Language : Russian
Default : No
Forced : No

Menu
00:00:00.000 : en:00:00:00.000
00:05:00.000 : en:00:05:00.000
00:10:00.000 : en:00:10:00.000
00:15:00.000 : en:00:15:00.000
00:20:00.000 : en:00:20:00.000
00:25:00.000 : en:00:25:00.000
00:30:00.000 : en:00:30:00.000
00:35:00.000 : en:00:35:00.000
00:40:00.000 : en:00:40:00.000
00:45:00.000 : en:00:45:00.000
00:50:00.000 : en:00:50:00.000
00:55:00.000 : en:00:55:00.000
01:00:00.000 : en:01:00:00.000
01:05:00.000 : en:01:05:00.000
01:10:00.000 : en:01:10:00.000
01:15:00.000 : en:01:15:00.000
01:20:00.000 : en:01:20:00.000
01:25:00.000 : en:01:25:00.000
01:30:00.000 : en:01:30:00.000
01:35:00.000 : en:01:35:00.000
01:40:00.000 : en:01:40:00.000
01:45:00.000 : en:01:45:00.000
01:50:00.000 : en:01:50:00.000
01:55:00.000 : en:01:55:00.000
02:00:00.000 : en:02:00:00.000
02:05:00.000 : en:02:05:00.000
02:10:00.000 : en:02:10:00.000
02:15:00.000 : en:02:15:00.000

Релиз Группа: Автор Рипа:

загрузка...
Правила, инструкции, FAQ!!!
Торрент  Добавлен [11 ноя 2014, 17:12] Скачать торрент
Скачать торрент
[ Размер 40.28 КБ / Просмотров 12 ]

Статус
Проверен 
 
Размер  7.95 ГБ
Приватный: Нет (DHT включён)
.torrent скачан  96
Как залить торрент? | Как скачать Torrent? | Как смотреть и слушать онлайн?  


     Отправить личное сообщение
   
Страница 1 из 1
Показать сообщения за:  Поле сортировки  
Начать новую тему Ответить на тему

   Похожие торренты   Автор   Ответы   Просмотры   Последнее сообщение 
В этой теме нет новых непрочитанных сообщений. Скачать торрент Проверен Спасатель / The Guardian (2006) BDRip 720p

в форуме 720p | 1080p, Размер: 6.53 ГБ, Здоровье: 100%

Anonymous

0
18|1

43
80

11 ноя 2014, 17:06

Anonymous Перейти к последнему сообщению

В этой теме нет новых непрочитанных сообщений. Скачать торрент Проверен Спасатель / The Guardian (2006) HDRip-AVC | D

в форуме Боевики, Размер: 2.18 ГБ, Здоровье: 100%

Anonymous

0
93|2

43
3

11 ноя 2014, 17:09

Anonymous Перейти к последнему сообщению

В этой теме нет новых непрочитанных сообщений. Скачать торрент Проверен 300 спартанцев / 300 (2006) BDRip 1080p

в форуме 720p | 1080p, Размер: 7.76 ГБ, Здоровье: 100%

Anonymous

0
82|3

122
785

19 май 2014, 13:08

Anonymous Перейти к последнему сообщению

В этой теме нет новых непрочитанных сообщений. Скачать торрент Проверен Посейдон / Poseidon (2006) BDRip 1080p

в форуме 720p | 1080p, Размер: 10.01 ГБ, Здоровье: 100%

Anonymous

0
29|17

97
60

03 апр 2015, 00:04

Anonymous Перейти к последнему сообщению

В этой теме нет новых непрочитанных сообщений. Скачать торрент Проверен Алиби / The Alibi (2006) BDRip 1080p

в форуме 720p | 1080p, Размер: 5.77 ГБ, Здоровье: 100%

Гость

0
30|15

35
61

05 янв 2015, 20:20

Гость Перейти к последнему сообщению



Сейчас этот форум просматривают: нет зарегистрированных пользователей и гости: 1


Вы не можете начинать темы
Вы не можете отвечать на сообщения
Вы не можете редактировать свои сообщения
Вы не можете удалять свои сообщения
Вы не можете добавлять вложения

Перейти:  

!ВНИМАНИЕ!
 Ресурс не предоставляет электронные версии произведений, а занимается лишь коллекционированием и каталогизацией ссылок, присылаемых и публикуемых на форуме нашими читателями. Если вы являетесь правообладателем какого-либо представленного материала и не желаете чтобы ссылка на него находилась в нашем каталоге, свяжитесь с нами и мы незамедлительно удалим её. Файлы для обмена на трекере предоставлены пользователями сайта, и администрация не несёт ответственности за их содержание. Просьба не заливать файлы, защищенные авторскими правами, а также файлы нелегального содержания!