На всех торрентах на трекере установлена скидка на скачивание в размере 100 процентов(а).
 Возможность скачивания торрента НЕ зависит от ограничений при низком ратио, низком аплоаде, требуемом ратио или требуемом аплоаде.


Начать новую тему Ответить на тему
Статистика раздачи
Размер: 7.81 ГБ | Добавлен: 09 ноя 2014, 19:26 | Скачали: 134
Сидеров: 23  [0 байт/сек]    Личеров: 7  [0 байт/сек]
Пред. тема | След. тема 

Автор
Сообщение

СообщениеДобавлено: 09 ноя 2014, 19:26 

Название: Ночной народ
Оригинальное название: Nightbreed
Год выхода: 1990
Жанр: Ужасы, фэнтези
Режиссер: Клайв Баркер / Clive Barker

В ролях: Крэйг Шеффер, Энн Бобби, Дэвид Кроненберг, Чарльз Хэйд, Хью Куэрши, Хью Росс, Даг Брэдли, Катрин Шевалье, Малкольм Смит, Боб Сессионс

О фильме:
Молодой человек по имени Бун считает себя виновным в серии зверских убийств. В этом его убедил психиатр Декер. Бун ищет спасения в легендарном Мидиане, подземном городе беглецов, где прощаются все грехи. Этот город — убежище «Ночного народа» древней расы чудовищных монстров — мутантов, живых мертвецов, меняющих свой облик и скрывающихся от дневного света и человеческих глаз.
Тепло встреченный «Ночным народом» Бун отныне должен превыше всего ставить безопасность Мидиана. И навсегда забыть Лори, которая любит его и пытается разыскать. А по ее следам идут полиция и Декер, мечтающий уничтожить «Ночной народ»…



Страна: США
Студия: Morgan Creek Productions
Продолжительность: 02:00:48
Перевод: Авторский одноголосый


Кодек: h.264
Качество: BDRip 1080p
Видео: MPEG-4, 1920x1080, 8 488 Мбит/с, 23.976 кадр/с
Звук:
Аудио #1: Русский ( AC3, 6ch, 384 Кбит/с, 48.0 KHz) Авторский (одноголосый закадровый) A. Матвеев
Аудио #2: Английский ( AC3, 6ch, 384 Кбит/с, 48.0 KHz) Оригинал
Complete name : Nightbreed.1990.BDRip.1080p.Rus.Eng.mkv
Format : Matroska
Format version : Version 4 / Version 2
File size : 7.81 GiB
Duration : 2h 0mn
Overall bit rate : 9 254 Kbps
Encoded date : UTC 2014-11-09 13:49:24
Writing application : mkvmerge v6.9.1 ('Blue Panther') 64bit built on Apr 18 2014 18:23:38
Writing library : libebml v1.3.0 + libmatroska v1.4.1

Video
ID : 1
Format : AVC
Format/Info : Advanced Video Codec
Format profile : High@L4.1
Format settings, CABAC : Yes
Format settings, ReFrames : 4 frames
Codec ID : V_MPEG4/ISO/AVC
Duration : 2h 0mn
Bit rate : 8 488 Kbps
Width : 1 920 pixels
Height : 1 080 pixels
Display aspect ratio : 16:9
Frame rate mode : Constant
Frame rate : 23.976 fps
Color space : YUV
Chroma subsampling : 4:2:0
Bit depth : 8 bits
Scan type : Progressive
Bits/(Pixel*Frame) : 0.171
Stream size : 7.01 GiB (90%)
Title : Video
Writing library : x264 core 125 r2200 999b753
Encoding settings : cabac=1 / ref=4 / deblock=1:-1:-1 / analyse=0x3:0x113 / me=umh / subme=8 / psy=1 / psy_rd=1.00:0.15 / mixed_ref=1 / me_range=16 / chroma_me=1 / trellis=1 / 8x8dct=1 / cqm=0 / deadzone=21,11 / fast_pskip=1 / chroma_qp_offset=-3 / threads=6 / lookahead_threads=1 / sliced_threads=0 / nr=0 / decimate=1 / interlaced=0 / bluray_compat=0 / constrained_intra=0 / bframes=3 / b_pyramid=2 / b_adapt=2 / b_bias=0 / direct=3 / weightb=1 / open_gop=0 / weightp=2 / keyint=250 / keyint_min=23 / scenecut=40 / intra_refresh=0 / rc_lookahead=50 / rc=2pass / mbtree=1 / bitrate=8488 / ratetol=1.0 / qcomp=0.60 / qpmin=0 / qpmax=69 / qpstep=4 / cplxblur=20.0 / qblur=0.5 / ip_ratio=1.40 / aq=1:1.00
Default : Yes
Forced : No

Audio #1
ID : 2
Format : AC-3
Format/Info : Audio Coding 3
Mode extension : CM (complete main)
Format settings, Endianness : Big
Codec ID : A_AC3
Duration : 2h 0mn
Bit rate mode : Constant
Bit rate : 384 Kbps
Channel(s) : 6 channels
Channel positions : Front: L C R, Side: L R, LFE
Sampling rate : 48.0 KHz
Bit depth : 16 bits
Compression mode : Lossy
Stream size : 332 MiB (4%)
Title : Audio 1
Language : Russian
Default : Yes
Forced : No

Audio #2
ID : 3
Format : AC-3
Format/Info : Audio Coding 3
Mode extension : CM (complete main)
Format settings, Endianness : Big
Codec ID : A_AC3
Duration : 2h 0mn
Bit rate mode : Constant
Bit rate : 384 Kbps
Channel(s) : 6 channels
Channel positions : Front: L C R, Side: L R, LFE
Sampling rate : 48.0 KHz
Bit depth : 16 bits
Compression mode : Lossy
Stream size : 332 MiB (4%)
Title : Audio 2
Language : English
Default : No
Forced : No

загрузка...
Правила, инструкции, FAQ!!!
Торрент  Добавлен [09 ноя 2014, 19:26] Скачать торрент
Скачать торрент
[ Размер 20.14 КБ / Просмотров 12 ]

Статус
Проверен 
 
Размер  7.81 ГБ
Приватный: Нет (DHT включён)
.torrent скачан  134
Как залить торрент? | Как скачать Torrent? | Как смотреть и слушать онлайн?  


     Отправить личное сообщение
   
Страница 1 из 1
Показать сообщения за:  Поле сортировки  
Начать новую тему Ответить на тему

   Похожие торренты   Автор   Ответы   Просмотры   Последнее сообщение 
В этой теме нет новых непрочитанных сообщений. Скачать торрент Проверен Ночной народ / Nightbreed (1990) DVDRip

в форуме Ужасы, Размер: 1.37 ГБ, Здоровье: 100%

Anonymous

0
7|5

45
77

09 ноя 2014, 19:29

Anonymous Перейти к последнему сообщению

В этой теме нет новых непрочитанных сообщений. Скачать торрент Народ против Ларри Флинта / The People vs. Larry Flyn (Милош Форман / Milos Forman) [1996, США, драма, биография, BDRip 1080p] DUB

в форуме 720p | 1080p, Размер: 18.52 ГБ, Здоровье: 0%

Anonymous

0
0|0

27
0

25 фев 2014, 22:40

Anonymous Перейти к последнему сообщению

В этой теме нет новых непрочитанных сообщений. Скачать торрент Проверен Ночной беглец / Run All Night (2015) BDRip 1080p | iTunes

в форуме 720p | 1080p, Размер: 9.2 ГБ, Здоровье: 100%

Anonymous

0
613|301

203
1315

29 июн 2015, 22:37

Anonymous Перейти к последнему сообщению

В этой теме нет новых непрочитанных сообщений. Скачать торрент Народ против Ларри Флинта / The People vs. Larry Flynt (Милош Форман / Milos Forman) [1996 г., драма, биография, BDRemux 1080p] Dub

в форуме 720p | 1080p, Размер: 20.72 ГБ, Здоровье: 0%

Anonymous

0
0|0

25
0

25 фев 2014, 22:40

Anonymous Перейти к последнему сообщению

В этой теме нет новых непрочитанных сообщений. Скачать торрент Проверен (Pop) Шалопай (Борис Рожанский) - Ночной дождь - 1990, MP3, 192 kbps

в форуме Отечественная музыка, Размер: 43.16 МБ, Здоровье: 66%

Anonymous

0
2|3

18
1

30 июл 2016, 15:03

Anonymous Перейти к последнему сообщению



Сейчас этот форум просматривают: нет зарегистрированных пользователей и гости: 4


Вы не можете начинать темы
Вы не можете отвечать на сообщения
Вы не можете редактировать свои сообщения
Вы не можете удалять свои сообщения
Вы не можете добавлять вложения

Перейти:  

!ВНИМАНИЕ!
 Ресурс не предоставляет электронные версии произведений, а занимается лишь коллекционированием и каталогизацией ссылок, присылаемых и публикуемых на форуме нашими читателями. Если вы являетесь правообладателем какого-либо представленного материала и не желаете чтобы ссылка на него находилась в нашем каталоге, свяжитесь с нами и мы незамедлительно удалим её. Файлы для обмена на трекере предоставлены пользователями сайта, и администрация не несёт ответственности за их содержание. Просьба не заливать файлы, защищенные авторскими правами, а также файлы нелегального содержания!