На всех торрентах на трекере установлена скидка на скачивание в размере 100 процентов(а).
 Возможность скачивания торрента НЕ зависит от ограничений при низком ратио, низком аплоаде, требуемом ратио или требуемом аплоаде.


Начать новую тему Ответить на тему
Статистика раздачи
Размер: 7.75 ГБ | Добавлен: 09 ноя 2014, 16:06 | Скачали: 102
Сидеров: 61  [0 байт/сек]    Личеров: 20  [0 байт/сек]
Пред. тема | След. тема 

Автор
Сообщение

СообщениеДобавлено: 09 ноя 2014, 16:06 

Название: Железная хватка
Оригинальное название: True Grit
Год выхода: 2010
Жанр: драма, приключения, вестерн
Режиссер: Итан Коэн, Джоэл Коэн

В ролях: Джефф Бриджес, Хейли Стайнфелд, Мэтт Дэймон, Джош Бролин, Барри Пеппер, Дэкин Мэтьюз, Ярлат Конрой, Пол Рэй, Донал Глисон

О ФИЛЬМЕ
В этом фильме рассказывается история 14-летней девочки, стареющего судебного пристава Рустера Когберна и ещё одного законника. Вместе они идут по следам убийцы отца девочки, которые ведут во враждебную индейскую территорию.



Страна: США
Производство: Mike Zoss Productions, Paramount Pictures, Skydance Productions
Продолжительность: 01:50:20
Перевод: Дублированный + Авторский [Ю. Сербин, А. Гаврилов, В. Назаров]


Качество: BDRip 1080p
Формат: MKV
Видео: AVC, 1920x816 at 23.976 fps, AVC at 7492 kbps avg, 0.199 bit/pixel
Аудио 1: Русский / AC3 / 6ch / 640 kbps | DUB
Аудио 2: Русский / AC3 / 6ch / 640 kbps | Авторский [Ю. Сербин]
Аудио 3: Русский / AC3 / 6ch / 640 kbps | Авторский [А. Гаврилов]
Аудио 4: Русский / AC3 / 6ch / 640 kbps | Авторский [В. Назаров]
Субтитры: Русские, Английские
Дополнительно: Сохранены оригинальные чаптеры как на Blu-Ray






General
Unique ID : 187517275333107793538038789011954339969 (0x8D128379058AD9EE908122F3D7821081)
Complete name : H:True.Grit.2010.BD.1080.Hot-Film.mkv
Format : Matroska
Format version : Version 2
File size : 7.75 GiB
Duration : 1h 50mn
Overall bit rate : 10.1 Mbps
Encoded date : UTC 2014-01-29 15:29:42
Writing application : mkvmerge v5.8.0 ('No Sleep / Pillow') built on Sep 2 2012 15:37:04
Writing library : libebml v1.2.3 + libmatroska v1.3.0

Video
ID : 1
Format : AVC
Format/Info : Advanced Video Codec
Format profile : High@L4.1
Format settings, CABAC : Yes
Format settings, ReFrames : 5 frames
Codec ID : V_MPEG4/ISO/AVC
Duration : 1h 50mn
Bit rate : 7 492 Kbps
Width : 1 920 pixels
Height : 816 pixels
Display aspect ratio : 2.35:1
Frame rate mode : Constant
Frame rate : 23.976 fps
Color space : YUV
Chroma subsampling : 4:2:0
Bit depth : 8 bits
Scan type : Progressive
Bits/(Pixel*Frame) : 0.199
Stream size : 5.62 GiB (73%)
Writing library : x264 core 138 r2358 9e941d1
Encoding settings : cabac=1 / ref=5 / deblock=1:-3:-3 / analyse=0x3:0x113 / me=umh / subme=11 / psy=1 / psy_rd=1.00:0.10 / mixed_ref=1 / me_range=32 / chroma_me=1 / trellis=2 / 8x8dct=1 / cqm=0 / deadzone=21,11 / fast_pskip=0 / chroma_qp_offset=-3 / threads=2 / lookahead_threads=1 / sliced_threads=0 / nr=0 / decimate=0 / interlaced=0 / bluray_compat=0 / constrained_intra=0 / bframes=6 / b_pyramid=2 / b_adapt=2 / b_bias=0 / direct=3 / weightb=1 / open_gop=0 / weightp=2 / keyint=240 / keyint_min=23 / scenecut=40 / intra_refresh=0 / rc_lookahead=40 / rc=2pass / mbtree=0 / bitrate=7492 / ratetol=1.0 / qcomp=0.60 / qpmin=0 / qpmax=69 / qpstep=4 / cplxblur=20.0 / qblur=0.5 / vbv_maxrate=50000 / vbv_bufsize=62500 / nal_hrd=none / ip_ratio=1.40 / pb_ratio=1.30 / aq=1:0.80
Language : English
Default : Yes
Forced : No

Audio #1
ID : 2
Format : AC-3
Format/Info : Audio Coding 3
Mode extension : CM (complete main)
Format settings, Endianness : Big
Codec ID : A_AC3
Duration : 1h 50mn
Bit rate mode : Constant
Bit rate : 640 Kbps
Channel(s) : 6 channels
Channel positions : Front: L C R, Side: L R, LFE
Sampling rate : 48.0 KHz
Bit depth : 16 bits
Compression mode : Lossy
Stream size : 505 MiB (6%)
Title : DUB
Language : Russian
Default : Yes
Forced : No

Audio #2
ID : 3
Format : AC-3
Format/Info : Audio Coding 3
Mode extension : CM (complete main)
Format settings, Endianness : Big
Codec ID : A_AC3
Duration : 1h 50mn
Bit rate mode : Constant
Bit rate : 640 Kbps
Channel(s) : 6 channels
Channel positions : Front: L C R, Side: L R, LFE
Sampling rate : 48.0 KHz
Bit depth : 16 bits
Compression mode : Lossy
Stream size : 505 MiB (6%)
Title : Ю.Сербин
Language : Russian
Default : No
Forced : No

Audio #3
ID : 4
Format : AC-3
Format/Info : Audio Coding 3
Mode extension : CM (complete main)
Format settings, Endianness : Big
Codec ID : A_AC3
Duration : 1h 50mn
Bit rate mode : Constant
Bit rate : 640 Kbps
Channel(s) : 6 channels
Channel positions : Front: L C R, Side: L R, LFE
Sampling rate : 48.0 KHz
Bit depth : 16 bits
Compression mode : Lossy
Stream size : 505 MiB (6%)
Title : А.Гаврилов
Language : Russian
Default : No
Forced : No

Audio #4
ID : 5
Format : AC-3
Format/Info : Audio Coding 3
Mode extension : CM (complete main)
Format settings, Endianness : Big
Codec ID : A_AC3
Duration : 1h 50mn
Bit rate mode : Constant
Bit rate : 640 Kbps
Channel(s) : 6 channels
Channel positions : Front: L C R, Side: L R, LFE
Sampling rate : 48.0 KHz
Bit depth : 16 bits
Compression mode : Lossy
Stream size : 505 MiB (6%)
Title : В.Назаров
Language : Russian
Default : No
Forced : No

Text #1
ID : 6
Format : UTF-8
Codec ID : S_TEXT/UTF8
Codec ID/Info : UTF-8 Plain Text
Language : Russian
Default : No
Forced : No

Text #2
ID : 7
Format : UTF-8
Codec ID : S_TEXT/UTF8
Codec ID/Info : UTF-8 Plain Text
Language : English
Default : No
Forced : No

Menu
00:00:00.000 : :Chapter 01
00:12:42.887 : :Chapter 02
00:23:59.354 : :Chapter 03
00:34:06.502 : :Chapter 04
00:46:20.110 : :Chapter 05
00:59:31.192 : :Chapter 06
01:18:30.414 : :Chapter 07
01:32:04.977 : :Chapter 08
01:41:00.929 : :Chapter 09
01:45:59.144 : :Chapter 10

Релиз от:
загрузка...
Правила, инструкции, FAQ!!!
Торрент  Добавлен [09 ноя 2014, 16:06] Скачать торрент
Скачать торрент
[ Размер 39.3 КБ / Просмотров 6 ]

Статус
Проверен 
 
Размер  7.75 ГБ
Приватный: Нет (DHT включён)
.torrent скачан  102
Как залить торрент? | Как скачать Torrent? | Как смотреть и слушать онлайн?  


     Отправить личное сообщение
   
Страница 1 из 1
Показать сообщения за:  Поле сортировки  
Начать новую тему Ответить на тему

   Похожие торренты   Автор   Ответы   Просмотры   Последнее сообщение 
В этой теме нет новых непрочитанных сообщений. Скачать торрент Железная хватка / True Grit (2010) BDRip 720p | Лицензия

в форуме 720p | 1080p, Размер: 5.04 ГБ, Здоровье: 100%

Anonymous

0
16|4

28
70

15 фев 2014, 16:51

Anonymous Перейти к последнему сообщению

В этой теме нет новых непрочитанных сообщений. Скачать торрент Проверен [iPhone] Железная хватка / True Grit (Итэн Коэн, Джоэл Коэн / Ethan Coen, Joel Coen) [2010, драма, приключения, вестерн, BDRip, 720x320] Rus, Eng + Subs (Rus, Eng)

в форуме Фильмы для iPod, iPhone, iPad, Размер: 1.13 ГБ, Здоровье: 100%

Гость

0
2|1

30
0

18 май 2015, 10:37

Гость Перейти к последнему сообщению

В этой теме нет новых непрочитанных сообщений. Скачать торрент Проверен Charles Portis / Чарльз Портис - True Grit / Железная Хватка - 2011 [2011, PDF, RUS]

в форуме Зарубежная литература (XX и XXI век), Размер: 26.42 МБ, Здоровье: 0%

Anonymous

0
0|0

0
0

08 сен 2016, 18:33

Anonymous Перейти к последнему сообщению

В этой теме нет новых непрочитанных сообщений. Скачать торрент Проверен Лавров Валентин - Железная хватка графа Соколова. [1998, PDF, RUS]

в форуме Детективы и Боевики, Размер: 12.87 МБ, Здоровье: 0%

Anonymous

0
0|0

2
0

08 сен 2016, 20:42

Anonymous Перейти к последнему сообщению

В этой теме нет новых непрочитанных сообщений. Скачать торрент Проверен Валентин Лавров - Железная хватка графа Соколова [Герасимов Вячеслав, 2009, 96 kbps]

в форуме Детектив и Боевики, Размер: 578.36 МБ, Здоровье: 0%

Anonymous

0
0|0

8
0

04 май 2016, 22:25

Anonymous Перейти к последнему сообщению



Сейчас этот форум просматривают: нет зарегистрированных пользователей и гости: 1


Вы не можете начинать темы
Вы не можете отвечать на сообщения
Вы не можете редактировать свои сообщения
Вы не можете удалять свои сообщения
Вы не можете добавлять вложения

Перейти:  

!ВНИМАНИЕ!
 Ресурс не предоставляет электронные версии произведений, а занимается лишь коллекционированием и каталогизацией ссылок, присылаемых и публикуемых на форуме нашими читателями. Если вы являетесь правообладателем какого-либо представленного материала и не желаете чтобы ссылка на него находилась в нашем каталоге, свяжитесь с нами и мы незамедлительно удалим её. Файлы для обмена на трекере предоставлены пользователями сайта, и администрация не несёт ответственности за их содержание. Просьба не заливать файлы, защищенные авторскими правами, а также файлы нелегального содержания!