На всех торрентах на трекере установлена скидка на скачивание в размере 100 процентов(а).
 Возможность скачивания торрента НЕ зависит от ограничений при низком ратио, низком аплоаде, требуемом ратио или требуемом аплоаде.


Начать новую тему Ответить на тему
Статистика раздачи
Размер: 8.33 ГБ | Добавлен: 09 ноя 2014, 15:29 | Скачали: 82
Сидеров: 11  [0 байт/сек]    Личеров: 0  [0 байт/сек]
Пред. тема | След. тема 

Автор
Сообщение

СообщениеДобавлено: 09 ноя 2014, 15:29 

Год выпуска: 1998
Страна: США
Жанр: драма
Продолжительность: 02:05:07
Перевод: профессиональный двухголосый. авторский
Субтитры: английские

Режиссёр: Майкл Кристофер

В ролях: Анджелина Джоли, Элизабет Митчелл, Эрик Майкл Коул, Кайли Трэвис, Луис Гьямбалво, Джон Консидайн, Скотт Коэн, Эдмунд Жене, Мерседес Рул, Фэй Данауэй, Холли Бэйкер, Джо Басиле, Рик Баталла, Ломбардо Бойяр, Джулиан Дульсе Вида, Брайан Донован, Александр Энберг, Гвидо Фёрвайсер, Джуди Джиллетт, Джон Грин мл., Тим Хатчинсон, Мишель Йонас, Мила Кунис, Стив Ларсон, Дринда Лалумия

Описание: Основанная на реальных событиях история всемирно известной супер-модели по имени Джиа Мари Каранджи. В конце семидесятых эту женщину называли королевой мирового подиума. До этого она была обыкновенной девушкой, работавшей мойщицей посуды в заброшенном кафе на окраине города...



Качество: BDRip 720p
Формат: MKV
Видео кодек: H.264
Аудио кодек: AC3
Видео: 7864 Kбит/с, 1280x720, 23.976 кадра/с, 0.356 bpp
Аудио 1: русский, AC3, 192 kbps, 2 ch, 48 kHz [профессиональный двухголосый]
Аудио 2: русский, AC3, 192 kbps, 2 ch, 48 kHz [профессиональный двухголосый, VHS]
Аудио 3: русский, AC3, 448 kbps, 6 ch, 48 kHz [авторский, Алексей Матвеев (Doctor Joker), с ненормативной лексикой]
Аудио 4: английский, AC3, 640 kbps, 6 ch, 48 kHz [оригинал]

Имеются неименованные главы/чаптеры.

Золотой глобус, 1999 год
Победитель (2):
Лучшая актриса второго плана мини-сериала или фильма на ТВ (Фэй Данауэй)
Лучшая актриса мини-сериала или фильма на ТВ (Анджелина Джоли)

Номинации (1):
Лучший мини-сериал или фильм на ТВ

Премия Гильдии актеров, 1999 год
Победитель (1):
Лучшая женская роль в телефильме или минисериале (Анджелина Джоли)

Эмми, 1998 год
Номинации (1):
Лучшая женская роль в мини-сериале или телефильме (Анджелина Джоли)

frame I:1191 Avg QP:20.64 size:139481
frame P:33545 Avg QP:21.58 size: 66938
frame B:145263 Avg QP:23.72 size: 35406

Общее
Уникальный идентификатор : 254992672118061564847817568857352802392 (0xBFD5CD626DAF818B85C2FB1AE34B9058)
Полное имя : D:VideoGia.UnrCut.1998.BDRip.720p.mkv
Формат : Matroska
Версия формата : Version 4 / Version 2
Размер файла : 8,33 Гбайт
Продолжительность : 2 ч. 5 м.
Общий поток : 9525 Кбит/сек
Дата кодирования : UTC 2014-11-09 08:59:52
Программа кодирования : mkvmerge v7.3.0 ('Nouages') 64bit built on Oct 22 2014 18:53:34
Библиотека кодирования : libebml v1.3.0 + libmatroska v1.4.1
DURATION : 02:00:22.423000000
NUMBER_OF_FRAMES : 1322
NUMBER_OF_BYTES : 43277
_STATISTICS_WRITING_APP : mkvmerge v7.3.0 ('Nouages') 64bit built on Oct 22 2014 18:53:34
_STATISTICS_WRITING_DATE_UTC : 2014-11-09 08:59:52
_STATISTICS_TAGS : BPS DURATION NUMBER_OF_FRAMES NUMBER_OF_BYTES

Видео
Идентификатор : 1
Формат : AVC
Формат/Информация : Advanced Video Codec
Профиль формата : High@L4.1
Параметр CABAC формата : Да
Параметр ReFrames формата : 9 кадров
Идентификатор кодека : V_MPEG4/ISO/AVC
Продолжительность : 2 ч. 5 м.
Битрейт : 7864 Кбит/сек
Ширина : 1280 пикселей
Высота : 720 пикселей
Соотношение сторон : 16:9
Режим частоты кадров : Постоянный
Частота кадров : 23,976 кадра/сек
Цветовое пространство : YUV
Субдискретизация насыщенности : 4:2:0
Битовая глубина : 8 бит
Тип развёртки : Прогрессивная
Бит/(Пиксели*Кадры) : 0.356
Размер потока : 6,87 Гбайт (83%)
Заголовок : BDRip -- STarankov
Библиотека кодирования : x264 core 142 r2431 ac76440
Настройки программы : cabac=1 / ref=9 / deblock=1:-1:-1 / analyse=0x3:0x113 / me=umh / subme=10 / psy=1 / psy_rd=1.00:0.15 / mixed_ref=1 / me_range=32 / chroma_me=1 / trellis=2 / 8x8dct=1 / cqm=0 / deadzone=21,11 / fast_pskip=1 / chroma_qp_offset=-3 / threads=6 / lookahead_threads=1 / sliced_threads=0 / nr=0 / decimate=1 / interlaced=0 / bluray_compat=0 / constrained_intra=0 / bframes=8 / b_pyramid=2 / b_adapt=2 / b_bias=0 / direct=3 / weightb=1 / open_gop=0 / weightp=2 / keyint=230 / keyint_min=23 / scenecut=40 / intra_refresh=0 / rc_lookahead=40 / rc=crf / mbtree=0 / crf=20.5 / qcomp=0.60 / qpmin=0 / qpmax=69 / qpstep=4 / vbv_maxrate=50000 / vbv_bufsize=62500 / crf_max=0.0 / nal_hrd=none / filler=0 / ip_ratio=1.40 / pb_ratio=1.30 / aq=1:1.00
Язык : English
Default : Да
Forced : Нет
DURATION : 02:05:07.459000000
NUMBER_OF_FRAMES : 179999
NUMBER_OF_BYTES : 7554747232
_STATISTICS_WRITING_APP : mkvmerge v7.3.0 ('Nouages') 64bit built on Oct 22 2014 18:53:34
_STATISTICS_WRITING_DATE_UTC : 2014-11-09 08:59:52
_STATISTICS_TAGS : BPS DURATION NUMBER_OF_FRAMES NUMBER_OF_BYTES

Аудио #1
Идентификатор : 2
Формат : AC-3
Формат/Информация : Audio Coding 3
Расширение режима : CM (complete main)
Параметр Endianness формата : Big
Идентификатор кодека : A_AC3
Продолжительность : 2 ч. 5 м.
Вид битрейта : Постоянный
Битрейт : 192 Кбит/сек
Каналы : 2 канала
Расположение каналов : Front: L R
Частота : 48,0 КГц
Битовая глубина : 16 бит
Метод сжатия : С потерями
Размер потока : 172 Мбайт (2%)
Заголовок : DVO
Язык : Russian
Default : Да
Forced : Нет

Аудио #2
Идентификатор : 3
Формат : AC-3
Формат/Информация : Audio Coding 3
Расширение режима : CM (complete main)
Параметр Endianness формата : Big
Идентификатор кодека : A_AC3
Продолжительность : 2 ч. 5 м.
Вид битрейта : Постоянный
Битрейт : 192 Кбит/сек
Каналы : 2 канала
Расположение каналов : Front: L R
Частота : 48,0 КГц
Битовая глубина : 16 бит
Метод сжатия : С потерями
Размер потока : 172 Мбайт (2%)
Заголовок : DVO (VHS)
Язык : Russian
Default : Нет
Forced : Нет

Аудио #3
Идентификатор : 4
Формат : AC-3
Формат/Информация : Audio Coding 3
Расширение режима : CM (complete main)
Параметр Endianness формата : Big
Идентификатор кодека : A_AC3
Продолжительность : 2 ч. 5 м.
Вид битрейта : Постоянный
Битрейт : 448 Кбит/сек
Каналы : 6 каналов
Расположение каналов : Front: L C R, Side: L R, LFE
Частота : 48,0 КГц
Битовая глубина : 16 бит
Метод сжатия : С потерями
Размер потока : 401 Мбайт (5%)
Заголовок : AVO (Алексей Матвеев (Doctor Joker))
Язык : Russian
Default : Нет
Forced : Нет

Аудио #4
Идентификатор : 5
Формат : AC-3
Формат/Информация : Audio Coding 3
Расширение режима : CM (complete main)
Параметр Endianness формата : Big
Идентификатор кодека : A_AC3
Продолжительность : 2 ч. 5 м.
Вид битрейта : Постоянный
Битрейт : 640 Кбит/сек
Каналы : 6 каналов
Расположение каналов : Front: L C R, Side: L R, LFE
Частота : 48,0 КГц
Битовая глубина : 16 бит
Метод сжатия : С потерями
Размер потока : 573 Мбайт (7%)
Заголовок : Original
Язык : English
Default : Нет
Forced : Нет

Текст #1
Идентификатор : 6
Формат : UTF-8
Идентификатор кодека : S_TEXT/UTF8
Идентификатор кодека/Информация : UTF-8 Plain Text
Заголовок : русский
Язык : Russian
Default : Нет
Forced : Нет

Текст #2
Идентификатор : 7
Формат : UTF-8
Идентификатор кодека : S_TEXT/UTF8
Идентификатор кодека/Информация : UTF-8 Plain Text
Заголовок : английский
Default : Нет
Forced : Нет

Меню
00:00:00.000 : en:Chapter 01
00:05:38.337 : en:Chapter 02
00:15:26.801 : en:Chapter 03
00:21:31.957 : en:Chapter 04
00:31:38.645 : en:Chapter 05
00:36:43.908 : en:Chapter 06
00:46:22.237 : en:Chapter 07
00:56:36.475 : en:Chapter 08
01:04:55.599 : en:Chapter 09
01:15:12.630 : en:Chapter 10
01:23:40.180 : en:Chapter 11
01:33:43.117 : en:Chapter 12
01:41:02.389 : en:Chapter 13
01:47:55.468 : en:Chapter 14
01:58:27.725 : en:Chapter 15


загрузка...
Правила, инструкции, FAQ!!!
Торрент  Добавлен [09 ноя 2014, 15:29] Скачать торрент
Скачать торрент
[ Размер 21.3 КБ / Просмотров 12 ]

Статус
Проверен 
 
Размер  8.33 ГБ
Приватный: Нет (DHT включён)
.torrent скачан  82
Как залить торрент? | Как скачать Torrent? | Как смотреть и слушать онлайн?  


     Отправить личное сообщение
   
Страница 1 из 1
Показать сообщения за:  Поле сортировки  
Начать новую тему Ответить на тему

   Похожие торренты   Автор   Ответы   Просмотры   Последнее сообщение 
В этой теме нет новых непрочитанных сообщений. Скачать торрент Джиа / Gia (1998) BDRip | Расширенная версия / Unrated

в форуме Драмы, Мелодрамы, Размер: 1.46 ГБ, Здоровье: 100%

Anonymous

0
97|1

107
1432

12 дек 2013, 12:39

Anonymous Перейти к последнему сообщению

В этой теме нет новых непрочитанных сообщений. Скачать торрент Проверен Дикость / Wild Things (1998) BDRip 720p | D, P, 3 x A | Расширенная версия

в форуме 720p | 1080p, Размер: 5.31 ГБ, Здоровье: 100%

Гость

0
4|0

62
1

12 апр 2016, 20:56

Гость Перейти к последнему сообщению

В этой теме нет новых непрочитанных сообщений. Скачать торрент Проверен Копы в глубоком запасе / The Other Guys (2010) BDRip 720p | Расширенная версия

в форуме 720p | 1080p, Размер: 3.84 ГБ, Здоровье: 100%

Anonymous

0
23|4

48
695

01 авг 2014, 22:06

Anonymous Перейти к последнему сообщению

В этой теме нет новых непрочитанных сообщений. Скачать торрент Каратэ-пацан / The Karate Kid (2010) BDRip 720p | Лицензия | Расширенная версия

в форуме 720p | 1080p, Размер: 5.86 ГБ, Здоровье: 0%

Anonymous

0
0|0

19
0

06 фев 2014, 14:48

Anonymous Перейти к последнему сообщению

В этой теме нет новых непрочитанных сообщений. Скачать торрент Проверен Ковбои против пришельцев / Cowboys & Aliens (2011) BDRip 720p | Расширенная версия

в форуме 720p | 1080p, Размер: 4.26 ГБ, Здоровье: 100%

Anonymous

0
166|44

110
154

25 апр 2015, 21:40

Anonymous Перейти к последнему сообщению



Сейчас этот форум просматривают: нет зарегистрированных пользователей и гости: 1


Вы не можете начинать темы
Вы не можете отвечать на сообщения
Вы не можете редактировать свои сообщения
Вы не можете удалять свои сообщения
Вы не можете добавлять вложения

Перейти:  

!ВНИМАНИЕ!
 Ресурс не предоставляет электронные версии произведений, а занимается лишь коллекционированием и каталогизацией ссылок, присылаемых и публикуемых на форуме нашими читателями. Если вы являетесь правообладателем какого-либо представленного материала и не желаете чтобы ссылка на него находилась в нашем каталоге, свяжитесь с нами и мы незамедлительно удалим её. Файлы для обмена на трекере предоставлены пользователями сайта, и администрация не несёт ответственности за их содержание. Просьба не заливать файлы, защищенные авторскими правами, а также файлы нелегального содержания!