На всех торрентах на трекере установлена скидка на скачивание в размере 100 процентов(а).
 Возможность скачивания торрента НЕ зависит от ограничений при низком ратио, низком аплоаде, требуемом ратио или требуемом аплоаде.


Начать новую тему Ответить на тему
Статистика раздачи
Размер: 11.55 ГБ | Добавлен: 09 ноя 2014, 09:08 | Скачали: 60
Сидеров: 34  [0 байт/сек]    Личеров: 54  [0 байт/сек]
Пред. тема | След. тема 

Автор
Сообщение

СообщениеДобавлено: 09 ноя 2014, 09:08 

Название: Сердце Ангела
Оригинальное название: Angel Heart
Год выхода: 1987
Жанр: Мистический триллер, детектив
Режиссер: Алан Паркер
В ролях: Микки Рурк, Роберт Де Ниро, Лиза Боне, Шарлотта Рэмплинг, Стокер Фонтелье, Брауни МакГи, Майкл Хиггинс, Элизабет Уиткрафт, Элиотт Кинер, Чарльз Гордон

О фильме:
1955 год, Нью-Йорк, к частному детективу Гарри Эйнджелу обращается некий Луис Сайфер с просьбой разыскать талантливого музыканта Джонни Фэйворита. В 1943 году мистер Сайфер заключил с Джонни один контракт, но Фэйворит, вернувшись с войны, попал в психиатрическую лечебницу, откуда впоследствии исчез… Следы его потерялись… Гарри начинает расследование, однако, чем дальше продвигается он в своих поисках, тем больше загадок встречается на его пути. А обратной дороги нет: каждый, у кого сыщик пытался выведать хоть какие-то сведения о пропавшем Джонни, после разговора с Эйнджелом погибал…



Страна: США, Канада, Великобритания
Студия: Carolco International N.V., Union, Winkast Film Productions Ltd.
Продолжительность: 01:53:11
Перевод: Профессиональный (многоголосый, закадровый) R5 + Советский дубляж + Профессиональный (многоголосый, закадровый) телеканал "ОРТ" + Профессиональный (многоголосый, закадровый) Киномания + Авторский (одноголосый, закадровый) Алексей Михалёв + Оригинал


Кодек: x264
Качество: BDRip 1080p (источник: HDCLUB / Blu-ray Disc / 1080p)
Видео: 1920х1040 (1.85:1), 12184 Kbps, 23.976 fps, 0.254 bit/pixel
Аудио #1: 48.0 kHz, AC3 Dolby Digital, 3/2 (L,C,R,l,r) + LFE ch, 384 kbps [Многоголосый, R5]
Аудио #2: 48.0 kHz, AC3 Dolby Digital, 2/0 (L,R) ch, 192 kbps [Советский дубляж [присутствуют вставки закадрового перевода]]
Аудио #3: 48.0 kHz, AC3 Dolby Digital, 2/0 (L,R) ch, 192 kbps [Многоголосый, телеканал "ОРТ"]
Аудио #4: 48.0 kHz, AC3 Dolby Digital, 3/2 (L,C,R,l,r) + LFE ch, 384 kbps [Многоголосый, Киномания]
Аудио #5: 48.0 kHz, AC3 Dolby Digital, 3/2 (L,C,R,l,r) + LFE ch, 640 kbps [Авторский, А. Михалёв]
Аудио #6: 48.0 kHz, AC3 Dolby Digital, 3/2 (L,C,R,l,r) + LFE ch, 640 kbps [Оригинал, Английский]
Субтитры: Русские [R5, Doctor Joker], английские

Семпл



x264 [info]: frame I:972 Avg QP:16.87 size:216423
x264 [info]: frame P:31164 Avg QP:19.16 size:108115
x264 [info]: frame B:130686 Avg QP:20.88 size: 51702
General
Unique ID : 198540325904000817752565980165502054621 (0x955D79D372B524FCA3A6F91BED0AB0DD)
Complete name : E:Angel.Heart.1987.x264.BDRip.1080p.mkv
Format : Matroska
Format version : Version 2
File size : 11.6 GiB
Duration : 1h 53mn
Overall bit rate : 14.6 Mbps
Encoded date : UTC 2014-11-09 01:29:42
Writing application : mkvmerge v5.8.0 ('No Sleep / Pillow') built on Sep 2 2012 15:37:04
Writing library : libebml v1.2.3 + libmatroska v1.3.0

Video
ID : 1
Format : AVC
Format/Info : Advanced Video Codec
Format profile : High@L4.1
Format settings, CABAC : Yes
Format settings, ReFrames : 4 frames
Codec ID : V_MPEG4/ISO/AVC
Duration : 1h 53mn
Bit rate : 12.2 Mbps
Width : 1 920 pixels
Height : 1 040 pixels
Display aspect ratio : 1.85:1
Frame rate mode : Constant
Frame rate : 23.976 fps
Color space : YUV
Chroma subsampling : 4:2:0
Bit depth : 8 bits
Scan type : Progressive
Bits/(Pixel*Frame) : 0.254
Stream size : 9.40 GiB (81%)
Writing library : x264 core 142 r2479 dd79a61
Encoding settings : cabac=1 / ref=4 / deblock=1:-2:-2 / analyse=0x3:0x133 / me=tesa / subme=11 / psy=1 / psy_rd=1.00:0.00 / mixed_ref=1 / me_range=32 / chroma_me=1 / trellis=2 / 8x8dct=1 / cqm=0 / deadzone=21,11 / fast_pskip=0 / chroma_qp_offset=-2 / threads=12 / lookahead_threads=3 / sliced_threads=0 / nr=0 / decimate=0 / interlaced=0 / bluray_compat=0 / constrained_intra=0 / bframes=10 / b_pyramid=2 / b_adapt=2 / b_bias=0 / direct=3 / weightb=1 / open_gop=0 / weightp=2 / keyint=240 / keyint_min=23 / scenecut=40 / intra_refresh=0 / rc=2pass / mbtree=0 / bitrate=12184 / ratetol=1.0 / qcomp=0.60 / qpmin=0 / qpmax=69 / qpstep=4 / cplxblur=20.0 / qblur=0.5 / ip_ratio=1.40 / pb_ratio=1.30 / aq=1:1.00
Language : English
Default : Yes
Forced : No

Audio #1
ID : 2
Format : AC-3
Format/Info : Audio Coding 3
Mode extension : CM (complete main)
Format settings, Endianness : Big
Codec ID : A_AC3
Duration : 1h 53mn
Bit rate mode : Constant
Bit rate : 384 Kbps
Channel(s) : 6 channels
Channel positions : Front: L C R, Side: L R, LFE
Sampling rate : 48.0 KHz
Bit depth : 16 bits
Compression mode : Lossy
Stream size : 311 MiB (3%)
Title : Многоголосый, R5
Language : Russian
Default : Yes
Forced : No

Audio #2
ID : 3
Format : AC-3
Format/Info : Audio Coding 3
Mode extension : CM (complete main)
Format settings, Endianness : Big
Codec ID : A_AC3
Duration : 1h 53mn
Bit rate mode : Constant
Bit rate : 192 Kbps
Channel(s) : 2 channels
Channel positions : Front: L R
Sampling rate : 48.0 KHz
Bit depth : 16 bits
Compression mode : Lossy
Stream size : 155 MiB (1%)
Title : Советский дубляж
Language : Russian
Default : No
Forced : No

Audio #3
ID : 4
Format : AC-3
Format/Info : Audio Coding 3
Mode extension : CM (complete main)
Format settings, Endianness : Big
Codec ID : A_AC3
Duration : 1h 53mn
Bit rate mode : Constant
Bit rate : 192 Kbps
Channel(s) : 2 channels
Channel positions : Front: L R
Sampling rate : 48.0 KHz
Bit depth : 16 bits
Compression mode : Lossy
Stream size : 155 MiB (1%)
Title : Многоголосый, телеканал "ОРТ"
Language : Russian
Default : No
Forced : No

Audio #4
ID : 5
Format : AC-3
Format/Info : Audio Coding 3
Mode extension : CM (complete main)
Format settings, Endianness : Big
Codec ID : A_AC3
Duration : 1h 53mn
Bit rate mode : Constant
Bit rate : 384 Kbps
Channel(s) : 6 channels
Channel positions : Front: L C R, Side: L R, LFE
Sampling rate : 48.0 KHz
Bit depth : 16 bits
Compression mode : Lossy
Stream size : 311 MiB (3%)
Title : Многоголосый, Киномания
Language : Russian
Default : No
Forced : No

Audio #5
ID : 6
Format : AC-3
Format/Info : Audio Coding 3
Mode extension : CM (complete main)
Format settings, Endianness : Big
Codec ID : A_AC3
Duration : 1h 53mn
Bit rate mode : Constant
Bit rate : 640 Kbps
Channel(s) : 6 channels
Channel positions : Front: L C R, Side: L R, LFE
Sampling rate : 48.0 KHz
Bit depth : 16 bits
Compression mode : Lossy
Stream size : 518 MiB (4%)
Title : Авторский, А. Михалёв
Language : Russian
Default : No
Forced : No

Audio #6
ID : 7
Format : AC-3
Format/Info : Audio Coding 3
Mode extension : CM (complete main)
Format settings, Endianness : Big
Codec ID : A_AC3
Duration : 1h 53mn
Bit rate mode : Constant
Bit rate : 640 Kbps
Channel(s) : 6 channels
Channel positions : Front: L C R, Side: L R, LFE
Sampling rate : 48.0 KHz
Bit depth : 16 bits
Compression mode : Lossy
Stream size : 518 MiB (4%)
Title : Оригинал, Английский
Language : English
Default : No
Forced : No

Text #1
ID : 8
Format : UTF-8
Codec ID : S_TEXT/UTF8
Codec ID/Info : UTF-8 Plain Text
Title : Русские [R5]
Language : Russian
Default : No
Forced : No

Text #2
ID : 9
Format : UTF-8
Codec ID : S_TEXT/UTF8
Codec ID/Info : UTF-8 Plain Text
Title : Русские [Doctor Joker]
Language : Russian
Default : No
Forced : No

Text #3
ID : 10
Format : UTF-8
Codec ID : S_TEXT/UTF8
Codec ID/Info : UTF-8 Plain Text
Title : Английские
Language : English
Default : No
Forced : No

Menu
00:00:00.000 : en:
00:11:01.702 : en:
00:24:50.405 : en:
00:32:29.530 : en:
00:40:31.262 : en:
00:48:16.602 : en:
00:55:12.767 : en:
01:05:33.387 : en:
01:17:58.215 : en:
01:30:07.276 : en:
01:41:11.648 : en:
01:49:16.258 : en:
загрузка...
Правила, инструкции, FAQ!!!
Торрент  Добавлен [09 ноя 2014, 09:08] Скачать торрент
Скачать торрент
[ Размер 29.5 КБ / Просмотров 15 ]

Статус
Проверен 
 
Размер  11.55 ГБ
Приватный: Нет (DHT включён)
.torrent скачан  60
Как залить торрент? | Как скачать Torrent? | Как смотреть и слушать онлайн?  


     Отправить личное сообщение
   
Страница 1 из 1
Показать сообщения за:  Поле сортировки  
Начать новую тему Ответить на тему

   Похожие торренты   Автор   Ответы   Просмотры   Последнее сообщение 
В этой теме нет новых непрочитанных сообщений. Скачать торрент Проверен [iPad] Сердце Ангела / Angel heart (Алан Паркер / Alan Parker) [1987 г., Мистика, ужасы, триллер, BDRip 720p]

в форуме Фильмы для iPod, iPhone, iPad, Размер: 3.26 ГБ, Здоровье: 100%

Гость

0
12|4

41
0

18 май 2015, 10:49

Гость Перейти к последнему сообщению

В этой теме нет новых непрочитанных сообщений. Скачать торрент Проверен Сердце Ангела / Angel Heart (1987) HDRip

в форуме Триллеры, Размер: 1.45 ГБ, Здоровье: 100%

Anonymous

0
61|7

63
301

09 ноя 2014, 09:11

Anonymous Перейти к последнему сообщению

В этой теме нет новых непрочитанных сообщений. Скачать торрент Проверен В сердце моря / In the Heart of the Sea (2015) BDRip 1080p | iTunes

в форуме 720p | 1080p, Размер: 12.32 ГБ, Здоровье: 100%

Anonymous

0
223|10

124
256

20 мар 2016, 23:32

Anonymous Перейти к последнему сообщению

В этой теме нет новых непрочитанных сообщений. Скачать торрент Проверен Сердце льва / Heart of A Lion / Leijonasydän (2013) BDRip 1080p | L1

в форуме 720p | 1080p, Размер: 10.13 ГБ, Здоровье: 100%

Anonymous

0
7|0

38
122

26 май 2014, 21:50

Anonymous Перейти к последнему сообщению

В этой теме нет новых непрочитанных сообщений. Скачать торрент Проверен Водопад Ангела / Seraphim Falls (2006) BDRip 1080p

в форуме 720p | 1080p, Размер: 7.75 ГБ, Здоровье: 100%

Гость

0
29|5

80
310

30 дек 2014, 22:26

Гость Перейти к последнему сообщению



Сейчас этот форум просматривают: нет зарегистрированных пользователей и гости: 4


Вы не можете начинать темы
Вы не можете отвечать на сообщения
Вы не можете редактировать свои сообщения
Вы не можете удалять свои сообщения
Вы не можете добавлять вложения

Перейти:  

!ВНИМАНИЕ!
 Ресурс не предоставляет электронные версии произведений, а занимается лишь коллекционированием и каталогизацией ссылок, присылаемых и публикуемых на форуме нашими читателями. Если вы являетесь правообладателем какого-либо представленного материала и не желаете чтобы ссылка на него находилась в нашем каталоге, свяжитесь с нами и мы незамедлительно удалим её. Файлы для обмена на трекере предоставлены пользователями сайта, и администрация не несёт ответственности за их содержание. Просьба не заливать файлы, защищенные авторскими правами, а также файлы нелегального содержания!