На всех торрентах на трекере установлена скидка на скачивание в размере 100 процентов(а).
 Возможность скачивания торрента НЕ зависит от ограничений при низком ратио, низком аплоаде, требуемом ратио или требуемом аплоаде.


Начать новую тему Ответить на тему
Статистика раздачи
Размер: 11.55 ГБ | Добавлен: 08 ноя 2014, 22:36 | Скачали: 129
Сидеров: 84  [0 байт/сек]    Личеров: 49  [0 байт/сек]
Пред. тема | След. тема 

Автор
Сообщение

СообщениеДобавлено: 08 ноя 2014, 22:36 

    Название: Битва у Красной скалы
    Оригинальное: Red Cliff / Chi bi
    Год выхода: 2008
    Выпущено: Beijing Film Studio, China Film Group, Lion Rock Productions
    Страна: Китай, Гонконг, Япония, Тайвань, Корея Южная
    Жанр: Боевик, драма, приключения, военный, история
    Продолжительность: 02:27:50
    Перевод: Профессиональный дублированный
    Режиссер: Джон Ву
    В ролях: Тони Люн Чу Вай, Такэси Канэсиро, Чжан Фэни, Чан Чэнь, Чжао Вэй, Ху Цзюнь, Линь Чилин, Сидо Накамура, Юн Ю, Ба Сэнь Чжа Бу




Сюжет фильма
    Древний Китай, 208 год нашей эры. Хитроумный премьер-министр, а фактически правитель империи, Цао Цао убеждает нерешительного императора начать войну с двумя независимыми царствами, под предлогом объединения Китая. Милионная армия легко разбивает немногочисленные отряды царства Шу и запирает остатки войска в цитадели у Красной Скалы, не оставив им другого выбора, как обратиться за подмогой к правителю царства Восточный У, послав туда военного советника Чжуге Ляна. Ему удается убедить правителя царства послать армию, возглавляемую вице-правителем Чжоу Юем, на помощь осажденным. И теперь неясно, сможет ли грубая сила одолеть мужество и хитрость.



    Кодек: x264
    Формат: MKV
    Качество: BDRip 1080p (Источник: Blu-ray)
    Видео: MPEG-4 AVC (2.35:1) 1920x816 pix, 23.976 fps, 10290 kbps, 0.274 Bits/Pixel
    Аудио I: Dolby Digital (5.1) 16 bit, 48 kHz, 448 kbps (DUB)
    Аудио II: Dolby Digital (5.1) 16 bit, 48 kHz, 448 kbps (Chinese "Original")
    Субтитры: SRT Русские
    Меню: Сохранены оригинальные чаптеры Blu-ray

x264 [info]: frame I:1825 Avg QP:16.91 size:204749
x264 [info]: frame P:63033 Avg QP:19.84 size: 90292
x264 [info]: frame B:147811 Avg QP:21.54 size: 36124
General
Unique ID : 171979539171553754204968070154058638250 (0x81620DEF34B1408781A457C2AA42A3AA)
Format : Matroska
Format version : Version 2
File size : 11.5 GiB
Duration : 2h 27mn
Overall bit rate : 11.2 Mbps
Movie name : Битва у Красной скалы (2008) BDRip (1080p)
Encoded date : UTC 2014-11-07 18:23:45
Writing application : mkvmerge v5.8.0 ('No Sleep / Pillow') built on Sep 2 2012 15:37:04
Writing library : libebml v1.2.3 + libmatroska v1.3.0
Video
ID : 1
Format : AVC
Format/Info : Advanced Video Codec
Format profile : High@L4.1
Format settings, CABAC : Yes
Format settings, ReFrames : 5 frames
Codec ID : V_MPEG4/ISO/AVC
Duration : 2h 27mn
Bit rate : 10.3 Mbps
Width : 1 920 pixels
Height : 816 pixels
Display aspect ratio : 2.35:1
Frame rate mode : Constant
Frame rate : 23.976 fps
Color space : YUV
Chroma subsampling : 4:2:0
Bit depth : 8 bits
Scan type : Progressive
Bits/(Pixel*Frame) : 0.274
Stream size : 10.4 GiB (90%)
Title : Release by Alex260680
Writing library : x264 core 142 r2479 dd79a61
Encoding settings : cabac=1 / ref=5 / deblock=1:-3:-3 / analyse=0x3:0x133 / me=umh / subme=11 / psy=1 / psy_rd=1.00:0.00 / mixed_ref=1 / me_range=32 / chroma_me=1 / trellis=2 / 8x8dct=1 / cqm=0 / deadzone=21,11 / fast_pskip=0 / chroma_qp_offset=-2 / threads=6 / lookahead_threads=1 / sliced_threads=0 / nr=0 / decimate=0 / interlaced=0 / bluray_compat=0 / constrained_intra=0 / bframes=5 / b_pyramid=2 / b_adapt=2 / b_bias=0 / direct=3 / weightb=1 / open_gop=0 / weightp=2 / keyint=240 / keyint_min=23 / scenecut=40 / intra_refresh=0 / rc=2pass / mbtree=0 / bitrate=10290 / ratetol=1.0 / qcomp=0.60 / qpmin=0 / qpmax=69 / qpstep=4 / cplxblur=20.0 / qblur=0.5 / ip_ratio=1.40 / pb_ratio=1.30 / aq=1:0.70
Language : Chinese
Default : Yes
Forced : No
Audio #1
ID : 2
Format : AC-3
Format/Info : Audio Coding 3
Mode extension : CM (complete main)
Format settings, Endianness : Big
Codec ID : A_AC3
Duration : 2h 27mn
Bit rate mode : Constant
Bit rate : 448 Kbps
Channel(s) : 6 channels
Channel positions : Front: L C R, Side: L R, LFE
Sampling rate : 48.0 KHz
Bit depth : 16 bits
Compression mode : Lossy
Stream size : 474 MiB (4%)
Title : DUB
Language : Russian
Default : Yes
Forced : No
Audio #2
ID : 3
Format : AC-3
Format/Info : Audio Coding 3
Mode extension : CM (complete main)
Format settings, Endianness : Big
Codec ID : A_AC3
Duration : 2h 27mn
Bit rate mode : Constant
Bit rate : 448 Kbps
Channel(s) : 6 channels
Channel positions : Front: L C R, Side: L R, LFE
Sampling rate : 48.0 KHz
Bit depth : 16 bits
Compression mode : Lossy
Stream size : 474 MiB (4%)
Title : Original
Language : Chinese
Default : No
Forced : No
Text
ID : 4
Format : UTF-8
Codec ID : S_TEXT/UTF8
Codec ID/Info : UTF-8 Plain Text
Language : Russian
Default : No
Forced : No
Menu
00:00:00.000 : en:Chapter 01
00:06:45.363 : en:Chapter 02
00:14:10.475 : en:Chapter 03
00:24:17.915 : en:Chapter 04
00:32:44.504 : en:Chapter 05
00:39:10.598 : en:Chapter 06
00:47:01.902 : en:Chapter 07
00:54:37.900 : en:Chapter 08
01:02:46.388 : en:Chapter 09
01:11:24.614 : en:Chapter 10
01:19:05.991 : en:Chapter 11
01:25:43.221 : en:Chapter 12
01:33:32.899 : en:Chapter 13
01:43:57.606 : en:Chapter 14
01:52:06.094 : en:Chapter 15
01:59:18.068 : en:Chapter 16
02:08:54.894 : en:Chapter 17
02:20:19.411 : en:Chapter 18
загрузка...
Правила, инструкции, FAQ!!!
Торрент  Добавлен [08 ноя 2014, 22:36] Скачать торрент
Скачать торрент
[ Размер 29.54 КБ / Просмотров 12 ]

Статус
Проверен 
 
Размер  11.55 ГБ
Приватный: Нет (DHT включён)
.torrent скачан  129
Как залить торрент? | Как скачать Torrent? | Как смотреть и слушать онлайн?  


     Отправить личное сообщение
   
Страница 1 из 1
Показать сообщения за:  Поле сортировки  
Начать новую тему Ответить на тему

   Похожие торренты   Автор   Ответы   Просмотры   Последнее сообщение 
В этой теме нет новых непрочитанных сообщений. Скачать торрент Проверен [iPad] Битва у Красной скалы 2 / Chi bi xia: Jue zhan tian xia (Red Cliff: Part II) (Джон Ву/ John Woo) [2009, Китай, Боевик, драма, история, BDRip, 576p] MVO + Original + sub (rus, eng)

в форуме Фильмы для iPod, iPhone, iPad, Размер: 2.45 ГБ, Здоровье: 100%

Anonymous

0
9|3

48
0

12 май 2015, 00:07

Anonymous Перейти к последнему сообщению

В этой теме нет новых непрочитанных сообщений. Скачать торрент Проверен Битва у Красной скалы 2 / Chi bi xia: Jue zhan tian xia (2009) BDRip 720p

в форуме 720p | 1080p, Размер: 6.31 ГБ, Здоровье: 100%

Anonymous

0
15|4

37
134

08 ноя 2014, 22:28

Anonymous Перейти к последнему сообщению

В этой теме нет новых непрочитанных сообщений. Скачать торрент Евротур / EuroTrip (2004) BDRip [1080p] [Theatrical]

в форуме 720p | 1080p, Размер: 9.23 ГБ, Здоровье: 100%

Anonymous

0
23|0

58
3

11 дек 2013, 09:00

Anonymous Перейти к последнему сообщению

В этой теме нет новых непрочитанных сообщений. Скачать торрент Хочу как ты / The Change-Up (2011) BDRip 1080p | Theatrical Cut

в форуме 720p | 1080p, Размер: 7.76 ГБ, Здоровье: 100%

Anonymous

0
31|2

24
2

15 янв 2014, 19:14

Anonymous Перейти к последнему сообщению

В этой теме нет новых непрочитанных сообщений. Скачать торрент Проверен Эффект бабочки / The Butterfly Effect (2004) BDRip 1080p | Theatrical Cut

в форуме 720p | 1080p, Размер: 7.94 ГБ, Здоровье: 100%

Гость

0
45|4

45
94

07 дек 2014, 17:41

Гость Перейти к последнему сообщению



Сейчас этот форум просматривают: нет зарегистрированных пользователей и гости: 1


Вы не можете начинать темы
Вы не можете отвечать на сообщения
Вы не можете редактировать свои сообщения
Вы не можете удалять свои сообщения
Вы не можете добавлять вложения

Перейти:  

!ВНИМАНИЕ!
 Ресурс не предоставляет электронные версии произведений, а занимается лишь коллекционированием и каталогизацией ссылок, присылаемых и публикуемых на форуме нашими читателями. Если вы являетесь правообладателем какого-либо представленного материала и не желаете чтобы ссылка на него находилась в нашем каталоге, свяжитесь с нами и мы незамедлительно удалим её. Файлы для обмена на трекере предоставлены пользователями сайта, и администрация не несёт ответственности за их содержание. Просьба не заливать файлы, защищенные авторскими правами, а также файлы нелегального содержания!