На всех торрентах на трекере установлена скидка на скачивание в размере 100 процентов(а).
 Возможность скачивания торрента НЕ зависит от ограничений при низком ратио, низком аплоаде, требуемом ратио или требуемом аплоаде.


Начать новую тему Ответить на тему
Статистика раздачи
Размер: 7.9 ГБ | Добавлен: 08 ноя 2014, 22:22 | Скачали: 138
Сидеров: 61  [0 байт/сек]    Личеров: 21  [0 байт/сек]
Пред. тема | След. тема 

Автор
Сообщение

СообщениеДобавлено: 08 ноя 2014, 22:22 

Название: Ангел-А
Оригинальное название: Angel-A
Год выпуска: 2005
Жанр: Фэнтези, драма, мелодрама, комедия
Выпущено: Франция, Apipoulai, Canal+ [fr], Europa Corp., Sofica Europacorp, TF1 Films Productions
Режиссер: Люк Бессон

В ролях: Жамель Деббуз, Рье Расмуссен, Жильбер Мелки, Серж Рябукин, Аким Шир, Эрик Балье, Луи Пора, Венус Бун, Жером Жесдон, Мишель Белло, Мишель Шесно, Оливье Клавери, Соланж Милход, Лоран Жамекур, Франк-Оливье Бонне, Аким Колур, Тони Десканвелль, Григорий Мануков, Ален Зеф, Жан-Марк Монтальто, Жиль Милан, Тодд М. Талер, Гаэль Мэриетт

О фильме: 28-летний Андре должен десятки тысяч евро различным бандитам по всему Парижу. Когда подходит срок расплаты, он понимает, что шансов расплатиться нет. И в полиции, и в американском посольстве ему отказывают в помощи. Но вот, решив покончить с собой, он видит на мосту сногсшибательную красотку в очень маленьком чёрном платье, которая прыгает в Сену. Андре бросается за ней. Спасённая девушка обещает помочь Андре во всём: она придумывает удивительные способы добывать деньги и помогает решить проблемы с кредиторами. Но тут Андре начинает задаваться вопросом — почему эта восхитительная девушка так старается ради него?..

Качество: BDRip 1080p

Продолжительность: 01:30:38

Видео: MPEG-4 AVC, 8269 Кбит/с, 1920x818
Аудио 1: русский, 48 kHz, DTS, 6 ch, 755 kbps avg, [Дублированный]
Аудио 2: русский, 48 kHz, DTS, 6 ch, 1509 kbps avg, [Авторский, Андрей Гаврилов]
Аудио 3: русский, 44.1 kHz, МР3, 6 ch, 192 kbps avg, [Любительский, Вадим Архипов]
Аудио 4: французский, 48 kHz, DTS, 6 ch, 1509 kbps avg, [Оригинал]
Субтитры 1: русские
Субтитры 2: английские





Общее
Уникальный идентификатор : 203199221006783783889441641589943887966 (0x98DEBF16C7217590A5F412AFFB48E85E)
Полное имя : D:VideoAngel-A.2005.x264.BDRip.1080p.mkv
Формат : Matroska
Версия формата : Version 4 / Version 2
Размер файла : 7,90 Гбайт
Продолжительность : 1 ч. 30 м.
Общий поток : 12,5 Мбит/сек
Название фильма : BDRip -- STarankov
Дата кодирования : UTC 2014-03-04 02:42:06
Программа кодирования : mkvmerge v6.7.0 ('Back to the Ground') 64bit built on Jan 8 2014 15:10:52
Библиотека кодирования : libebml v1.3.0 + libmatroska v1.4.1

Видео
Идентификатор : 1
Формат : AVC
Формат/Информация : Advanced Video Codec
Профиль формата : High@L4.1
Параметр CABAC формата : Да
Параметр ReFrames формата : 4 кадра
Идентификатор кодека : V_MPEG4/ISO/AVC
Продолжительность : 1 ч. 30 м.
Битрейт : 8269 Кбит/сек
Ширина : 1920 пикселей
Высота : 818 пикселей
Соотношение сторон : 2,35:1
Режим частоты кадров : Постоянный
Частота кадров : 24,000 кадра/сек
Цветовое пространство : YUV
Субдискретизация насыщенности : 4:2:0
Битовая глубина : 8 бит
Тип развёртки : Прогрессивная
Бит/(Пиксели*Кадры) : 0.219
Размер потока : 5,24 Гбайт (66%)
Библиотека кодирования : x264 core 138 r2358 9e941d1
Настройки программы : cabac=1 / ref=4 / deblock=1:-1:-1 / analyse=0x3:0x113 / me=umh / subme=10 / psy=1 / psy_rd=1.00:0.15 / mixed_ref=1 / me_range=24 / chroma_me=1 / trellis=2 / 8x8dct=1 / cqm=0 / deadzone=21,11 / fast_pskip=0 / chroma_qp_offset=-3 / threads=6 / lookahead_threads=1 / sliced_threads=0 / nr=0 / decimate=1 / interlaced=0 / bluray_compat=0 / constrained_intra=0 / bframes=6 / b_pyramid=2 / b_adapt=2 / b_bias=0 / direct=1 / weightb=1 / open_gop=0 / weightp=2 / keyint=230 / keyint_min=23 / scenecut=40 / intra_refresh=0 / rc_lookahead=40 / rc=crf / mbtree=0 / crf=17.5 / qcomp=0.60 / qpmin=0 / qpmax=69 / qpstep=4 / vbv_maxrate=40000 / vbv_bufsize=50000 / crf_max=0.0 / nal_hrd=none / ip_ratio=1.40 / pb_ratio=1.30 / aq=1:1.00
Язык : French
Default : Да
Forced : Нет

Аудио #1
Идентификатор : 2
Формат : DTS
Формат/Информация : Digital Theater Systems
Режим : 16
Параметр Endianness формата : Big
Идентификатор кодека : A_DTS
Продолжительность : 1 ч. 30 м.
Вид битрейта : Постоянный
Битрейт : 755 Кбит/сек
Каналы : 6 каналов
Расположение каналов : Front: L C R, Side: L R, LFE
Частота : 48,0 КГц
Битовая глубина : 24 бит
Метод сжатия : С потерями
Размер потока : 489 Мбайт (6%)
Заголовок : DUB
Язык : Russian
Default : Да
Forced : Нет

Аудио #2
Идентификатор : 3
Формат : DTS
Формат/Информация : Digital Theater Systems
Режим : 16
Параметр Endianness формата : Big
Идентификатор кодека : A_DTS
Продолжительность : 1 ч. 30 м.
Вид битрейта : Постоянный
Битрейт : 1509 Кбит/сек
Каналы : 6 каналов
Расположение каналов : Front: L C R, Side: L R, LFE
Частота : 48,0 КГц
Битовая глубина : 16 бит
Метод сжатия : С потерями
Размер потока : 978 Мбайт (12%)
Заголовок : AVO (Андрей Гаврилов)
Язык : Russian
Default : Нет
Forced : Нет

Аудио #3
Идентификатор : 4
Формат : MPEG Audio
Версия формата : Version 1
Профиль формата : Layer 3
Режим : Joint stereo
Идентификатор кодека : A_MPEG/L3
Идентификатор кодека/Подсказка : MP3
Продолжительность : 1 ч. 30 м.
Вид битрейта : Постоянный
Битрейт : 192 Кбит/сек
Каналы : 2 канала
Частота : 44,1 КГц
Метод сжатия : С потерями
Размер потока : 124 Мбайт (2%)
Заголовок : VO (любительский, Вадим Архипов)
Язык : Russian
Default : Нет
Forced : Нет

Аудио #4
Идентификатор : 5
Формат : DTS
Формат/Информация : Digital Theater Systems
Режим : 16
Параметр Endianness формата : Big
Идентификатор кодека : A_DTS
Продолжительность : 1 ч. 30 м.
Вид битрейта : Постоянный
Битрейт : 1509 Кбит/сек
Каналы : 6 каналов
Расположение каналов : Front: L C R, Side: L R, LFE
Частота : 48,0 КГц
Битовая глубина : 16 бит
Метод сжатия : С потерями
Размер потока : 978 Мбайт (12%)
Заголовок : Original
Язык : French
Default : Нет
Forced : Нет

Текст #1
Идентификатор : 6
Формат : UTF-8
Идентификатор кодека : S_TEXT/UTF8
Идентификатор кодека/Информация : UTF-8 Plain Text
Заголовок : русский
Язык : Russian
Default : Нет
Forced : Нет

Текст #2
Идентификатор : 7
Формат : UTF-8
Идентификатор кодека : S_TEXT/UTF8
Идентификатор кодека/Информация : UTF-8 Plain Text
Заголовок : английский
Default : Нет
Forced : Нет

---[Information] [04.03.2014 0:34:48] x264 [info]: frame I:1084 Avg QP:15.45 size:142919
---[Information] [04.03.2014 0:34:48] x264 [info]: frame P:25507 Avg QP:16.56 size: 76180
---[Information] [04.03.2014 0:34:48] x264 [info]: frame B:103934 Avg QP:18.76 size: 35496
---[Information] [04.03.2014 0:34:48] x264 [info]: consecutive B-frames: 1.6% 1.1% 4.9% 10.7% 16.0% 54.2% 11.4%
---[Information] [04.03.2014 0:34:48] x264 [info]: mb I I16..4: 15.5% 69.1% 15.3%
---[Information] [04.03.2014 0:34:48] x264 [info]: mb P I16..4: 2.7% 22.9% 2.7% P16..4: 27.0% 21.0% 10.0% 0.0% 0.0% skip:13.7%
---[Information] [04.03.2014 0:34:48] x264 [info]: mb B I16..4: 0.3% 3.7% 0.3% B16..8: 39.3% 13.4% 3.0% direct: 9.8% skip:30.2% L0:40.9% L1:40.4% BI:18.8%
---[Information] [04.03.2014 0:34:48] x264 [info]: 8x8 transform intra:81.7% inter:49.5%
---[Information] [04.03.2014 0:34:48] x264 [info]: coded y,uvDC,uvAC intra: 88.3% 40.7% 17.4% inter: 38.5% 13.8% 0.4%
---[Information] [04.03.2014 0:34:48] x264 [info]: i16 v,h,dc,p: 49% 9% 18% 23%
---[Information] [04.03.2014 0:34:48] x264 [info]: i8 v,h,dc,ddl,ddr,vr,hd,vl,hu: 15% 10% 16% 8% 10% 10% 9% 11% 11%
---[Information] [04.03.2014 0:34:48] x264 [info]: i4 v,h,dc,ddl,ddr,vr,hd,vl,hu: 25% 8% 8% 7% 12% 12% 10% 9% 9%
---[Information] [04.03.2014 0:34:48] x264 [info]: i8c dc,h,v,p: 51% 29% 17% 3%
---[Information] [04.03.2014 0:34:48] x264 [info]: Weighted P-Frames: Y:1.6% UV:0.5%
---[Information] [04.03.2014 0:34:48] x264 [info]: ref P L0: 46.0% 12.6% 29.8% 11.1% 0.6% 0.0%
---[Information] [04.03.2014 0:34:48] x264 [info]: ref B L0: 84.1% 13.0% 3.0%
---[Information] [04.03.2014 0:34:48] x264 [info]: ref B L1: 91.6% 8.4%
---[Information] [04.03.2014 0:34:48] x264 [info]: kb/s:8512.94
---[Information] [04.03.2014 0:34:48] encoded 130525 frames, 5.03 fps, 8512.94 kb/s
---[Information] [04.03.2014 0:34:48] avs [info]: AviSynth 2.60, build:May 25 2011 [19:58:41]
---[Information] [04.03.2014 0:34:48] avs [info]: Video colorspace: YV12
---[Information] [04.03.2014 0:34:48] avs [info]: Video resolution: 1920x818
---[Information] [04.03.2014 0:34:48] avs [info]: Video framerate: 48000/2000
---[Information] [04.03.2014 0:34:48] avs [info]: Video framecount: 130525
---[Information] [04.03.2014 0:34:48] avs4x264 [info]: "x264_64" - --level 4.1 --tune film --crf 17.5 --keyint 230 --bframes 6 --b-adapt 2 --ref 4 --vbv-bufsize 50000 --vbv-maxrate 40000 --no-mbtree --merange 24 --me umh --subme 10 --trellis 2 --no-fast-pskip --sar 1:1 --output D:RipAngel-A.2005.x264.BDRipAngel-A.2005.x264.BDRip.1080p.264 --frames 130525 --fps 48000/2000 --input-res 1920x818 --input-csp i420
--[Information] [04.03.2014 0:34:49] Final statistics
---[Information] [04.03.2014 0:34:49] Constant Quality Mode: Quality 17 computed...
---[Information] [04.03.2014 0:34:49] Video Bitrate Obtained (approximate): 8512 kbit/s
--[Information] [04.03.2014 0:34:49] MediaInfo
---[Information] File: D:RipAngel-A.2005.x264.BDRipAngel-A.2005.x264.BDRip.1080p.264


загрузка...
Правила, инструкции, FAQ!!!
Торрент  Добавлен [08 ноя 2014, 22:22] Скачать торрент
Скачать торрент
[ Размер 20.25 КБ / Просмотров 7 ]

Статус
Проверен 
 
Размер  7.9 ГБ
Приватный: Нет (DHT включён)
.torrent скачан  138
Как залить торрент? | Как скачать Torrent? | Как смотреть и слушать онлайн?  


     Отправить личное сообщение
   
Страница 1 из 1
Показать сообщения за:  Поле сортировки  
Начать новую тему Ответить на тему

   Похожие торренты   Автор   Ответы   Просмотры   Последнее сообщение 
В этой теме нет новых непрочитанных сообщений. Скачать торрент Проверен Ангел-А / Angel-A (2005) BDRip

в форуме Фантастика, Фэнтези, Размер: 1.45 ГБ, Здоровье: 100%

Anonymous

0
269|5

59
59

08 ноя 2014, 22:18

Anonymous Перейти к последнему сообщению

В этой теме нет новых непрочитанных сообщений. Скачать торрент Проверен Ангел тьмы / Dark Angel (1990) BDRip 720p | P, P2, A, L1

в форуме 720p | 1080p, Размер: 7.88 ГБ, Здоровье: 100%

Anonymous

0
63|59

64
71

17 апр 2015, 16:23

Anonymous Перейти к последнему сообщению

В этой теме нет новых непрочитанных сообщений. Скачать торрент Проверен Мой парень - ангел (Вера Сторожева) [2011 г., Россия, фэнтези, мелодрама, комедия, приключения, BDRip 1080p]

в форуме Наше кино (HD Video), Размер: 10.56 ГБ, Здоровье: 100%

Anonymous

0
17|5

24
1

12 апр 2015, 15:01

Anonymous Перейти к последнему сообщению

В этой теме нет новых непрочитанных сообщений. Скачать торрент Ангел неба / Angel of the Skies (2013) DVDRip | A

в форуме Военные, Размер: 1.45 ГБ, Здоровье: 100%

Anonymous

0
16|2

135
32

30 мар 2014, 13:08

Anonymous Перейти к последнему сообщению

В этой теме нет новых непрочитанных сообщений. Скачать торрент Проверен Сердце Ангела / Angel Heart (1987) BDRip 1080p

в форуме 720p | 1080p, Размер: 11.55 ГБ, Здоровье: 62%

Anonymous

0
34|54

45
60

09 ноя 2014, 09:08

Anonymous Перейти к последнему сообщению



Сейчас этот форум просматривают: нет зарегистрированных пользователей и гости: 1


Вы не можете начинать темы
Вы не можете отвечать на сообщения
Вы не можете редактировать свои сообщения
Вы не можете удалять свои сообщения
Вы не можете добавлять вложения

Перейти:  

!ВНИМАНИЕ!
 Ресурс не предоставляет электронные версии произведений, а занимается лишь коллекционированием и каталогизацией ссылок, присылаемых и публикуемых на форуме нашими читателями. Если вы являетесь правообладателем какого-либо представленного материала и не желаете чтобы ссылка на него находилась в нашем каталоге, свяжитесь с нами и мы незамедлительно удалим её. Файлы для обмена на трекере предоставлены пользователями сайта, и администрация не несёт ответственности за их содержание. Просьба не заливать файлы, защищенные авторскими правами, а также файлы нелегального содержания!