На всех торрентах на трекере установлена скидка на скачивание в размере 100 процентов(а).
 Возможность скачивания торрента НЕ зависит от ограничений при низком ратио, низком аплоаде, требуемом ратио или требуемом аплоаде.


Начать новую тему Ответить на тему
Статистика раздачи
Размер: 4.37 ГБ | Добавлен: 08 ноя 2014, 21:53 | Скачали: 1185
Сидеров: 730  [0 байт/сек]    Личеров: 351  [0 байт/сек]
Пред. тема | След. тема 

Автор
Сообщение

СообщениеДобавлено: 08 ноя 2014, 21:53 

Название: Автостопом по галактике
Оригинальное название: The Hitchhiker's Guide to the Galaxy
Год выхода: 2005
Жанр: фантастика, комедия, приключения
Режиссер: Гарт Дженнингс
В ролях: Мартин Фриман, Мос Деф, Сэм Рокуэлл, Зои Дешанель, Билл Найи, Джон Малкович, Алан Рикман, Уорвик Дэвис, Анна Чэнселлор, Хелен Миррен

О фильме: В один прекрасный день над Землей нависли огромные звездолеты инопланетян, и людям объявили, что их родная планета подлежит сносу, а на ее месте будет проложено шикарное межзвездное шоссе. Н-да, не повезло человечеству. Кроме самого заурядного парня по имени Артур Дент, старый друг и собутыльник которого Форд Префект оказался… инопланетянином!



Выпущено: Touchstone Pictures
Продолжительность: 01:48:47
Перевод: Дублированный (Невафильм) + Авторский (Ю.Сербин)


Кодек: x264
Качество: BDRip (источник: Blu-ray Disc)
Видео: 1280x534 (2,40:1), 23.976 fps, 4475 kbps
Аудио #1: AC-3, 6 ch, 384 kbps (Дубляж, Невафильм)
Аудио #2: AC-3, 6 ch, 448 kbps (Одноголосый закадровый, Ю.Сербин)
Аудио #3: AC-3, 6 ch, 448 kbps (Original)
Субтитры: Русские, Английские
Скачать: сэмпл

Скриншоты

Общее
Уникальный идентификатор : 246053890758138890228517817242144009437 (0xB91C416FF2251511908481370FE0ECDD)
Полное имя : The.Hitchhiker's.Guide.to.the.Galaxy.2005.BDRip.720p.Rus.Eng.mkv
Формат : Matroska
Версия формата : Version 2
Размер файла : 4,37 Гбайт
Продолжительность : 1 ч. 48 м.
Общий поток : 5756 Кбит/сек
Название фильма : Автостопом по галактике / The Hitchhiker's Guide to the Galaxy (2005)
Дата кодирования : UTC 2014-11-07 18:03:14
Программа кодирования : mkvmerge v5.8.0 ('No Sleep / Pillow') built on Sep 2 2012 15:37:04
Библиотека кодирования : libebml v1.2.3 + libmatroska v1.3.0

Видео
Идентификатор : 1
Формат : AVC
Формат/Информация : Advanced Video Codec
Профиль формата : High@L4.1
Параметр CABAC формата : Да
Параметр ReFrames формата : 11 кадров
Идентификатор кодека : V_MPEG4/ISO/AVC
Продолжительность : 1 ч. 48 м.
Битрейт : 4475 Кбит/сек
Ширина : 1280 пикселей
Высота : 534 пикселя
Соотношение сторон : 2,40:1
Режим частоты кадров : Постоянный
Частота кадров : 23,976 кадра/сек
Цветовое пространство : YUV
Субдискретизация насыщенности : 4:2:0
Битовая глубина : 8 бит
Тип развёртки : Прогрессивная
Бит/(Пиксели*Кадры) : 0.273
Размер потока : 3,31 Гбайт (76%)
Заголовок : Release by AlexKa
Библиотека кодирования : x264 core 142 r2479 dd79a61
Настройки программы : cabac=1 / ref=11 / deblock=1:-3:-3 / analyse=0x3:0x133 / me=umh / subme=11 / psy=1 / psy_rd=1.00:0.10 / mixed_ref=1 / me_range=32 / chroma_me=1 / trellis=2 / 8x8dct=1 / cqm=0 / deadzone=21,11 / fast_pskip=0 / chroma_qp_offset=-3 / threads=12 / lookahead_threads=2 / sliced_threads=0 / nr=0 / decimate=0 / interlaced=0 / bluray_compat=0 / constrained_intra=0 / bframes=9 / b_pyramid=2 / b_adapt=2 / b_bias=0 / direct=3 / weightb=1 / open_gop=0 / weightp=2 / keyint=240 / keyint_min=23 / scenecut=40 / intra_refresh=0 / rc=2pass / mbtree=0 / bitrate=4475 / ratetol=1.0 / qcomp=0.60 / qpmin=0 / qpmax=69 / qpstep=4 / cplxblur=20.0 / qblur=0.5 / ip_ratio=1.40 / pb_ratio=1.30 / aq=1:0.80
Язык : English

Аудио #1
Идентификатор : 2
Формат : AC-3
Формат/Информация : Audio Coding 3
Расширение режима : CM (complete main)
Параметр Endianness формата : Big
Идентификатор кодека : A_AC3
Продолжительность : 1 ч. 48 м.
Вид битрейта : Постоянный
Битрейт : 384 Кбит/сек
Каналы : 6 каналов
Расположение каналов : Front: L C R, Side: L R, LFE
Частота : 48,0 КГц
Битовая глубина : 16 бит
Метод сжатия : С потерями
Размер потока : 299 Мбайт (7%)
Заголовок : Дубляж, Невафильм
Язык : Russian

Аудио #2
Идентификатор : 3
Формат : AC-3
Формат/Информация : Audio Coding 3
Расширение режима : CM (complete main)
Параметр Endianness формата : Big
Идентификатор кодека : A_AC3
Продолжительность : 1 ч. 48 м.
Вид битрейта : Постоянный
Битрейт : 448 Кбит/сек
Каналы : 6 каналов
Расположение каналов : Front: L C R, Side: L R, LFE
Частота : 48,0 КГц
Битовая глубина : 16 бит
Метод сжатия : С потерями
Размер потока : 349 Мбайт (8%)
Заголовок : Одноголосый закадровый, Ю.Сербин
Язык : Russian

Аудио #3
Идентификатор : 4
Формат : AC-3
Формат/Информация : Audio Coding 3
Расширение режима : CM (complete main)
Параметр Endianness формата : Big
Идентификатор кодека : A_AC3
Продолжительность : 1 ч. 48 м.
Вид битрейта : Постоянный
Битрейт : 448 Кбит/сек
Каналы : 6 каналов
Расположение каналов : Front: L C R, Side: L R, LFE
Частота : 48,0 КГц
Битовая глубина : 16 бит
Метод сжатия : С потерями
Размер потока : 349 Мбайт (8%)
Заголовок : Original
Язык : English

Текст #1
Идентификатор : 5
Формат : UTF-8
Идентификатор кодека : S_TEXT/UTF8
Идентификатор кодека/Информация : UTF-8 Plain Text
Заголовок : Rus
Язык : Russian

Текст #2
Идентификатор : 6
Формат : UTF-8
Идентификатор кодека : S_TEXT/UTF8
Идентификатор кодека/Информация : UTF-8 Plain Text
Заголовок : Eng
Язык : English

Меню
00:00:00.000 : :Chapter 01
00:03:53.232 : :Chapter 02
00:06:46.780 : :Chapter 03
00:12:57.484 : :Chapter 04
00:14:33.246 : :Chapter 05
00:18:34.695 : :Chapter 06
00:25:41.330 : :Chapter 07
00:30:17.272 : :Chapter 08
00:34:33.320 : :Chapter 09
00:40:10.949 : :Chapter 10
00:43:55.632 : :Chapter 11
00:48:41.668 : :Chapter 12
00:52:33.983 : :Chapter 13
00:56:34.766 : :Chapter 14
01:01:03.826 : :Chapter 15
01:06:15.887 : :Chapter 16
01:10:18.796 : :Chapter 17
01:14:01.979 : :Chapter 18
01:18:38.630 : :Chapter 19
01:23:06.354 : :Chapter 20
01:26:01.447 : :Chapter 21
01:30:46.314 : :Chapter 22
01:35:49.783 : :Chapter 23
01:41:53.814 : :Chapter 24
01:48:46.269 : :Chapter 25
x264 [info]: frame I:1430 Avg QP:17.41 size:120093
x264 [info]: frame P:33576 Avg QP:19.55 size: 42788
x264 [info]: frame B:121474 Avg QP:22.20 size: 16800
x264 [info]: consecutive B-frames: 2.1% 2.0% 8.1% 23.4% 14.6% 36.3% 4.8% 6.5% 0.9% 1.3%
загрузка...
Правила, инструкции, FAQ!!!
Торрент  Добавлен [08 ноя 2014, 21:53] Скачать торрент
Скачать торрент
[ Размер 11.62 КБ / Просмотров 11 ]

Статус
Проверен 
 
Размер  4.37 ГБ
Приватный: Нет (DHT включён)
.torrent скачан  1185
Как залить торрент? | Как скачать Torrent? | Как смотреть и слушать онлайн?  


     Отправить личное сообщение
   
Страница 1 из 1
Показать сообщения за:  Поле сортировки  
Начать новую тему Ответить на тему

   Похожие торренты   Автор   Ответы   Просмотры   Последнее сообщение 
В этой теме нет новых непрочитанных сообщений. Скачать торрент Автостопом по галактике / The Hitchhiker's Guide to the Galaxy (2005) BDRip 1080p

в форуме 720p | 1080p, Размер: 4.37 ГБ, Здоровье: 0%

Anonymous

0
0|0

68
1

20 дек 2013, 21:41

Anonymous Перейти к последнему сообщению

В этой теме нет новых непрочитанных сообщений. Скачать торрент Проверен [Английский] Adams Douglas / Адамс Дуглас - Dougas Adams The Hitchhiker's Guide to the Galaxy / Дуглас Адамс - Автостопом по галактике [автор, 1978 г., M4B, 192 kbps]

в форуме Аудиокниги (AAC, ALAC), Размер: 1.44 ГБ, Здоровье: 100%

Anonymous

0
8|2

2
0

28 авг 2016, 15:58

Anonymous Перейти к последнему сообщению

В этой теме нет новых непрочитанных сообщений. Скачать торрент Проверен [Ipod] Adams D. - The Hitchhiker's Guide to the Galaxy [in english/на английском]

в форуме Аудиокниги (AAC, ALAC), Размер: 318.4 МБ, Здоровье: 100%

Anonymous

0
2|1

0
0

28 авг 2016, 16:35

Anonymous Перейти к последнему сообщению

В этой теме нет новых непрочитанных сообщений. Скачать торрент Проверен Адамс Дуглас - Автостопом по галактике [Сергей Кузнецов, 2011 г., 128 kbps, MP3]

в форуме Зарубежная фантастика, фэнтези, мистика, ужасы, Размер: 255.35 МБ, Здоровье: 100%

Anonymous

0
13|0

5
1

11 сен 2016, 12:46

Anonymous Перейти к последнему сообщению

В этой теме нет новых непрочитанных сообщений. Скачать торрент Проверен Адамс Дуглас - Автостопом по Галактике. Ресторан У конца Вселенной [babay7, 2010, 128 Kbps]

в форуме Зарубежная фантастика, фэнтези, мистика, ужасы, Размер: 562.38 МБ, Здоровье: 100%

Anonymous

0
8|0

9
1

11 сен 2016, 11:12

Anonymous Перейти к последнему сообщению



Сейчас этот форум просматривают: нет зарегистрированных пользователей и гости: 1


Вы не можете начинать темы
Вы не можете отвечать на сообщения
Вы не можете редактировать свои сообщения
Вы не можете удалять свои сообщения
Вы не можете добавлять вложения

Перейти:  

!ВНИМАНИЕ!
 Ресурс не предоставляет электронные версии произведений, а занимается лишь коллекционированием и каталогизацией ссылок, присылаемых и публикуемых на форуме нашими читателями. Если вы являетесь правообладателем какого-либо представленного материала и не желаете чтобы ссылка на него находилась в нашем каталоге, свяжитесь с нами и мы незамедлительно удалим её. Файлы для обмена на трекере предоставлены пользователями сайта, и администрация не несёт ответственности за их содержание. Просьба не заливать файлы, защищенные авторскими правами, а также файлы нелегального содержания!