На всех торрентах на трекере установлена скидка на скачивание в размере 100 процентов(а).
 Возможность скачивания торрента НЕ зависит от ограничений при низком ратио, низком аплоаде, требуемом ратио или требуемом аплоаде.


Начать новую тему Ответить на тему
Статистика раздачи
Размер: 7.73 ГБ | Добавлен: 08 ноя 2014, 15:18 | Скачали: 48
Сидеров: 16  [0 байт/сек]    Личеров: 9  [0 байт/сек]
Пред. тема | След. тема 

Автор
Сообщение

СообщениеДобавлено: 08 ноя 2014, 15:18 

    Русское название: Солист
    Оригинальное название: The Soloist
    Год выхода: 2009
    Жанр: Драма, музыка, биография
    Режиссер: Джо Райт
    Выпущено: США
    Продолжительность: 01:57:02
    Перевод: Дублированный
    В ролях: Джейми Фокс, Роберт Дауни мл., Кэтрин Кинер, Том Холландер, Лиза Гэй Хэмилтон, Нелсан Эллис, Рэйчел Харрис, Стивен Рут, Лоррейн Туссен, Джастин Мартин


Сюжет фильма
    Журналист Стив Лопес встречает Натаниеля Айерса, бывшего виртуозного музыканта, вынужденного играть на виолончели на улицах Лос-Анджелеса. Лопес пытается помочь бездомному вернуться к нормальной жизни, и между ними возникает уникальная дружба, которая меняет судьбу обоих.


Файл
    Качество: BDRip 1080p (исходник Blu-ray Disc Remux)
    Видео: 1920x800, 8466 Кбит/сек, 23,976 кадр/сек, AVC, x264, High@L4.1, 2.40:1, 0.230 Бит/[Пиксели*Кадры], 2pass
    Аудио 1: AC-3, 384 Кбит/сек, 6 канала(ов), 48,0 КГц - Дублированный / Русский
    Аудио 2: AC-3, 640 Кбит/сек, 6 канала(ов), 48,0 КГц - Оригинал / Английский
    Субтитры: Русские | Форсированные, Английские | Полные
    Чаптеры (Главы): Есть



Автор Рипа: Сообщество:



Format : Matroska
Format version : Version 2
File size : 7.73 GiB
Duration : 1h 57mn
Overall bit rate : 9 452 Kbps
Movie name : Солист.(2009).BDRip.1080p.[envy]
Encoded date : UTC 2014-03-18 14:16:46
Writing application : mkvmerge v5.8.0 ('No Sleep / Pillow') built on Sep 2 2012 15:37:04
Writing library : libebml v1.2.3 + libmatroska v1.3.0

Video
ID : 1
Format : AVC
Format/Info : Advanced Video Codec
Format profile : High@L4.1
Format settings, CABAC : Yes
Format settings, ReFrames : 5 frames
Codec ID : V_MPEG4/ISO/AVC
Duration : 1h 57mn
Bit rate : 8 466 Kbps
Width : 1 920 pixels
Height : 800 pixels
Display aspect ratio : 2.40:1
Frame rate mode : Constant
Frame rate : 23.976 fps
Color space : YUV
Chroma subsampling : 4:2:0
Bit depth : 8 bits
Scan type : Progressive
Bits/(Pixel*Frame) : 0.230
Stream size : 6.74 GiB (87%)
Title : Солист.(2009).BDRip.1080p.[envy]
Writing library : x264 core 140 r2377 1ca7bb9
Encoding settings : cabac=1 / ref=5 / deblock=1:-2:-2 / analyse=0x3:0x133 / me=umh / subme=11 / psy=1 / psy_rd=1.00:0.00 / mixed_ref=1 / me_range=32 / chroma_me=1 / trellis=2 / 8x8dct=1 / cqm=0 / deadzone=21,11 / fast_pskip=0 / chroma_qp_offset=-2 / threads=12 / lookahead_threads=1 / sliced_threads=0 / nr=0 / decimate=1 / interlaced=0 / bluray_compat=0 / constrained_intra=0 / bframes=5 / b_pyramid=2 / b_adapt=2 / b_bias=0 / direct=3 / weightb=1 / open_gop=0 / weightp=2 / keyint=240 / keyint_min=23 / scenecut=40 / intra_refresh=0 / rc=2pass / mbtree=0 / bitrate=8466 / ratetol=2.0 / qcomp=0.60 / qpmin=0 / qpmax=69 / qpstep=4 / cplxblur=20.0 / qblur=0.5 / ip_ratio=1.40 / pb_ratio=1.30 / aq=2:0.90
Language : English
Default : Yes
Forced : No

Audio #1
ID : 2
Format : AC-3
Format/Info : Audio Coding 3
Mode extension : CM (complete main)
Format settings, Endianness : Big
Codec ID : A_AC3
Duration : 1h 57mn
Bit rate mode : Constant
Bit rate : 384 Kbps
Channel count : 6 channels
Channel positions : Front: L C R, Side: L R, LFE
Sampling rate : 48.0 KHz
Bit depth : 16 bits
Compression mode : Lossy
Stream size : 321 MiB (4%)
Title : Dub
Language : Russian
Default : Yes
Forced : No

Audio #2
ID : 3
Format : AC-3
Format/Info : Audio Coding 3
Mode extension : CM (complete main)
Format settings, Endianness : Big
Codec ID : A_AC3
Duration : 1h 57mn
Bit rate mode : Constant
Bit rate : 640 Kbps
Channel count : 6 channels
Channel positions : Front: L C R, Side: L R, LFE
Sampling rate : 48.0 KHz
Bit depth : 16 bits
Compression mode : Lossy
Stream size : 536 MiB (7%)
Title : Eng
Language : English
Default : No
Forced : No

Text #1
ID : 4
Format : UTF-8
Codec ID : S_TEXT/UTF8
Codec ID/Info : UTF-8 Plain Text
Title : forced
Language : Russian
Default : No
Forced : Yes

Text #2
ID : 5
Format : UTF-8
Codec ID : S_TEXT/UTF8
Codec ID/Info : UTF-8 Plain Text
Title : eng full
Language : English
Default : No
Forced : No

Menu
00:00:00.000 : en:00:00:00.000
00:05:15.315 : en:00:05:15.315
00:10:50.859 : en:00:10:50.859
00:14:46.677 : en:00:14:46.677
00:19:59.115 : en:00:19:59.115
00:25:56.680 : en:00:25:56.680
00:28:56.693 : en:00:28:56.693
00:36:19.386 : en:00:36:19.386
00:41:32.115 : en:00:41:32.115
00:47:33.934 : en:00:47:33.934
00:55:44.383 : en:00:55:44.383
00:58:38.098 : en:00:58:38.098
01:04:37.916 : en:01:04:37.916
01:10:30.143 : en:01:10:30.143
01:17:13.629 : en:01:17:13.629
01:22:56.054 : en:01:22:56.054
01:27:57.314 : en:01:27:57.314
01:36:31.077 : en:01:36:31.077
01:40:29.523 : en:01:40:29.523
01:44:58.000 : en:01:44:58.000
01:48:21.704 : en:01:48:21.704

загрузка...
Правила, инструкции, FAQ!!!
Торрент  Добавлен [08 ноя 2014, 15:18] Скачать торрент
Скачать торрент
[ Размер 39.15 КБ / Просмотров 12 ]

Статус
Проверен 
 
Размер  7.73 ГБ
Приватный: Нет (DHT включён)
.torrent скачан  48
Как залить торрент? | Как скачать Torrent? | Как смотреть и слушать онлайн?  


     Отправить личное сообщение
   
Страница 1 из 1
Показать сообщения за:  Поле сортировки  
Начать новую тему Ответить на тему

   Похожие торренты   Автор   Ответы   Просмотры   Последнее сообщение 
В этой теме нет новых непрочитанных сообщений. Скачать торрент Проверен Солист / The Soloist (2009) BDRip

в форуме Драмы, Мелодрамы, Размер: 1.46 ГБ, Здоровье: 100%

Anonymous

0
31|4

18
380

08 ноя 2014, 15:06

Anonymous Перейти к последнему сообщению

В этой теме нет новых непрочитанных сообщений. Скачать торрент Проверен Linkin Park - New Divide (2009) BDRip 1080p (Джо Хан) [2009, Alternative rock, BDRip]

в форуме Концерты (HD-Video), Размер: 451.32 МБ, Здоровье: 100%

Anonymous

0
3|1

4
0

23 окт 2016, 11:54

Anonymous Перейти к последнему сообщению

В этой теме нет новых непрочитанных сообщений. Скачать торрент Проверен Bon Jovi - When We Were Beautiful (Bonus) BDrip 1080p [2009, Rock, Documentary, BDRip]

в форуме Концерты (HD-Video), Размер: 4.09 ГБ, Здоровье: 100%

Anonymous

0
2|1

0
0

23 окт 2016, 14:23

Anonymous Перейти к последнему сообщению

В этой теме нет новых непрочитанных сообщений. Скачать торрент Проверен Jose Feliciano - The Paris Concert (2009) [2009, soft rock, blues, acoustic, BDRip 1080p]

в форуме Концерты (HD-Video), Размер: 7.95 ГБ, Здоровье: 100%

Anonymous

0
1|0

6
0

23 окт 2016, 13:02

Anonymous Перейти к последнему сообщению

В этой теме нет новых непрочитанных сообщений. Скачать торрент Проверен Metallica: Orgullo pasion y Gloria - Tres Noches en Mexico 2009 (Wayne Isham) [2009, Hard Rock, Trash Metal, BDRip 1080p, DTSHD-MA 5.1]

в форуме Концерты (HD-Video), Размер: 28.82 ГБ, Здоровье: 100%

Anonymous

0
2|1

6
0

23 окт 2016, 15:21

Anonymous Перейти к последнему сообщению



Сейчас этот форум просматривают: нет зарегистрированных пользователей и гости: 3


Вы не можете начинать темы
Вы не можете отвечать на сообщения
Вы не можете редактировать свои сообщения
Вы не можете удалять свои сообщения
Вы не можете добавлять вложения

Перейти:  

!ВНИМАНИЕ!
 Ресурс не предоставляет электронные версии произведений, а занимается лишь коллекционированием и каталогизацией ссылок, присылаемых и публикуемых на форуме нашими читателями. Если вы являетесь правообладателем какого-либо представленного материала и не желаете чтобы ссылка на него находилась в нашем каталоге, свяжитесь с нами и мы незамедлительно удалим её. Файлы для обмена на трекере предоставлены пользователями сайта, и администрация не несёт ответственности за их содержание. Просьба не заливать файлы, защищенные авторскими правами, а также файлы нелегального содержания!