На всех торрентах на трекере установлена скидка на скачивание в размере 100 процентов(а).
 Возможность скачивания торрента НЕ зависит от ограничений при низком ратио, низком аплоаде, требуемом ратио или требуемом аплоаде.


Начать новую тему Ответить на тему
Статистика раздачи
Размер: 11.5 ГБ | Добавлен: 06 ноя 2014, 17:31 | Скачали: 95
Сидеров: 23  [0 байт/сек]    Личеров: 4  [0 байт/сек]
Пред. тема | След. тема 

Автор
Сообщение

СообщениеДобавлено: 06 ноя 2014, 17:31 

Название: Послезавтра
Оригинальное название: The Day After Tomorrow
Год выхода: 2004
Жанр: Фантастика, триллер, драма, приключения
Режиссер: Роланд Эммерих
В ролях: Деннис Куэйд, Джейк Джилленхол, Эмми Россам, Дэш Майок, Джей О. Сэндерс, Села Уорд, Иэн Холм, Кеннет Уэлш, Гленн Пламмер, Адриан Лестер

О фильме:
Земля уверенно движется навстречу глобальной экологической катастрофе: в одной части света все живое погибает от засухи, в другой — разбушевавшаяся водная стихия сносит города.
Близость катастрофы вынуждает ученого-климатолога, пытающегося найти способ остановить глобальное потепление, отправиться на поиски пропавшего сына в Нью-Йорк, в котором наступил новый ледниковый период…



Страна: США
Студия: 20th Century Fox Film Corporation
Продолжительность: 02:03:41
Перевод: Дублированный |Blu-ray CEE| + Оригинал


Кодек: x264
Качество: BDRip 1080p (источник: Blu-ray Remux / 1080p)
Видео: 1920х816 (2.35:1), 12031 Kbps, 23.976 fps, 0.320 bit/pixel
Аудио #1: 48.0 kHz, AC3 Dolby Digital, 3/2 (L,C,R,l,r) + LFE ch, 640 kbps [Дубляж, Blu-ray CEE]
Аудио #2: 48.0 kHz, AC3 Dolby Digital, 3/2 (L,C,R,l,r) + LFE ch, 640 kbps [Оригинал, Английский]
Субтитры: Русские, английские

Семпл



x264 [info]: frame I:1236 Avg QP:13.35 size:174381
x264 [info]: frame P:39725 Avg QP:15.65 size: 95645
x264 [info]: frame B:136966 Avg QP:17.68 size: 52149
General
Unique ID : 183946929624021260324707824232557081605 (0x8A62E3D6A73E942CA3224D23930A7405)
Complete name : E:The.Day.After.Tomorrow.2004.x264.BDRip.1080p.mkv
Format : Matroska
Format version : Version 2
File size : 11.5 GiB
Duration : 2h 3mn
Overall bit rate : 13.3 Mbps
Encoded date : UTC 2013-11-22 18:36:52
Writing application : mkvmerge v5.8.0 ('No Sleep / Pillow') built on Sep 2 2012 15:37:04
Writing library : libebml v1.2.3 + libmatroska v1.3.0

Video
ID : 1
Format : AVC
Format/Info : Advanced Video Codec
Format profile : High@L4.1
Format settings, CABAC : Yes
Format settings, ReFrames : 5 frames
Codec ID : V_MPEG4/ISO/AVC
Duration : 2h 3mn
Bit rate : 12.0 Mbps
Width : 1 920 pixels
Height : 816 pixels
Display aspect ratio : 2.35:1
Frame rate mode : Constant
Frame rate : 23.976 fps
Color space : YUV
Chroma subsampling : 4:2:0
Bit depth : 8 bits
Scan type : Progressive
Bits/(Pixel*Frame) : 0.320
Stream size : 10.2 GiB (88%)
Writing library : x264 core 140 r2377 1ca7bb9
Encoding settings : cabac=1 / ref=5 / deblock=1:-3:-3 / analyse=0x3:0x133 / me=tesa / subme=11 / psy=1 / psy_rd=1.00:0.01 / mixed_ref=1 / me_range=32 / chroma_me=1 / trellis=2 / 8x8dct=1 / cqm=0 / deadzone=21,11 / fast_pskip=0 / chroma_qp_offset=-3 / threads=12 / lookahead_threads=1 / sliced_threads=0 / nr=0 / decimate=0 / interlaced=0 / bluray_compat=0 / constrained_intra=0 / bframes=6 / b_pyramid=2 / b_adapt=2 / b_bias=0 / direct=3 / weightb=0 / open_gop=0 / weightp=2 / keyint=240 / keyint_min=23 / scenecut=40 / intra_refresh=0 / rc=2pass / mbtree=0 / bitrate=12031 / ratetol=1.0 / qcomp=0.60 / qpmin=0 / qpmax=69 / qpstep=4 / cplxblur=20.0 / qblur=0.5 / ip_ratio=1.40 / pb_ratio=1.30 / aq=1:1.00
Language : English
Default : Yes
Forced : No

Audio #1
ID : 2
Format : AC-3
Format/Info : Audio Coding 3
Mode extension : CM (complete main)
Format settings, Endianness : Big
Codec ID : A_AC3
Duration : 2h 3mn
Bit rate mode : Constant
Bit rate : 640 Kbps
Channel count : 6 channels
Channel positions : Front: L C R, Side: L R, LFE
Sampling rate : 48.0 KHz
Bit depth : 16 bits
Compression mode : Lossy
Stream size : 566 MiB (5%)
Title : Дубляж, Blu-ray CEE
Language : Russian
Default : Yes
Forced : No

Audio #2
ID : 3
Format : AC-3
Format/Info : Audio Coding 3
Mode extension : CM (complete main)
Format settings, Endianness : Big
Codec ID : A_AC3
Duration : 2h 3mn
Bit rate mode : Constant
Bit rate : 640 Kbps
Channel count : 6 channels
Channel positions : Front: L C R, Side: L R, LFE
Sampling rate : 48.0 KHz
Bit depth : 16 bits
Compression mode : Lossy
Stream size : 566 MiB (5%)
Title : Оригинал, Английский
Language : English
Default : No
Forced : No

Text #1
ID : 4
Format : UTF-8
Codec ID : S_TEXT/UTF8
Codec ID/Info : UTF-8 Plain Text
Language : Russian
Default : No
Forced : No

Text #2
ID : 5
Format : ASS
Codec ID : S_TEXT/ASS
Codec ID/Info : Advanced Sub Station Alpha
Compression mode : Lossless
Language : English
Default : No
Forced : No

Menu
00:00:00.000 : en:Chapter 1
00:03:07.562 : en:Chapter 2
00:06:15.792 : en:Chapter 3
00:09:17.181 : en:Chapter 4
00:12:04.432 : en:Chapter 5
00:15:42.733 : en:Chapter 6
00:18:37.699 : en:Chapter 7
00:20:45.661 : en:Chapter 8
00:22:41.401 : en:Chapter 9
00:24:13.326 : en:Chapter 10
00:31:22.922 : en:Chapter 11
00:38:26.303 : en:Chapter 12
00:42:14.948 : en:Chapter 13
00:48:08.010 : en:Chapter 14
00:51:15.655 : en:Chapter 15
00:54:12.415 : en:Chapter 16
01:03:00.151 : en:Chapter 17
01:06:22.353 : en:Chapter 18
01:08:09.835 : en:Chapter 19
01:11:26.615 : en:Chapter 20
01:13:40.248 : en:Chapter 21
01:17:46.995 : en:Chapter 22
01:20:52.430 : en:Chapter 23
01:24:08.001 : en:Chapter 24
01:27:57.647 : en:Chapter 25
01:29:35.870 : en:Chapter 26
01:32:18.616 : en:Chapter 27
01:38:42.958 : en:Chapter 28
01:41:34.463 : en:Chapter 29
01:46:57.911 : en:Chapter 30
01:50:41.676 : en:Chapter 31
01:55:38.598 : en:Chapter 32
02:03:39.411 : en:Chapter 33
загрузка...
Правила, инструкции, FAQ!!!
Торрент  Добавлен [06 ноя 2014, 17:31] Скачать торрент
Скачать торрент
[ Размер 29.37 КБ / Просмотров 9 ]

Статус
Проверен 
 
Размер  11.5 ГБ
Приватный: Нет (DHT включён)
.torrent скачан  95
Как залить торрент? | Как скачать Torrent? | Как смотреть и слушать онлайн?  


     Отправить личное сообщение
   
Страница 1 из 1
Показать сообщения за:  Поле сортировки  
Начать новую тему Ответить на тему

   Похожие торренты   Автор   Ответы   Просмотры   Последнее сообщение 
В этой теме нет новых непрочитанных сообщений. Скачать торрент Проверен Послезавтра / The Day After Tomorrow (Роланд Эммерих) [2004, США, фантастика, триллер, драма, приключения, BDRip HD (480p)] DUV, MVO, DVO, AVO, Original + SUB (rus, eng)

в форуме Фильмы для iPod, iPhone, iPad, Размер: 2.27 ГБ, Здоровье: 100%

Гость

0
56|19

28
0

11 май 2015, 01:25

Гость Перейти к последнему сообщению

В этой теме нет новых непрочитанных сообщений. Скачать торрент Послезавтра / The Day After Tomorrow (Роланд Эммерих / Roland Emmerich) [2004 г., катастрофа, триллер, драма, фантастика, BDRip] Dub

в форуме Триллеры, Размер: 1.46 ГБ, Здоровье: 100%

Anonymous

0
56|19

48
0

29 апр 2014, 13:56

Anonymous Перейти к последнему сообщению

В этой теме нет новых непрочитанных сообщений. Скачать торрент Послезавтра / The Day After Tomorrow (Роланд Эммерих / Roland Emmerich) [2004, США, фантастика, боевик, триллер, драма, приключения, HDRip-AVC] DVO (Superbit)

в форуме 720p | 1080p, Размер: 743.6 МБ, Здоровье: 100%

Anonymous

0
21|7

61
0

10 фев 2014, 13:04

Anonymous Перейти к последнему сообщению

В этой теме нет новых непрочитанных сообщений. Скачать торрент Проверен Небесный капитан и мир будущего / Sky Captain and the World of Tomorrow (2004) BDRip 1080p

в форуме 720p | 1080p, Размер: 7.76 ГБ, Здоровье: 100%

Гость

0
496|54

73
1466

31 дек 2014, 15:36

Гость Перейти к последнему сообщению

В этой теме нет новых непрочитанных сообщений. Грань будущего / Edge of Tomorrow (2014) BDRip 1080p | D, A

в форуме Новинки кино, Размер: 9.62 ГБ, Здоровье: 100%

Anonymous

0
132|2

390
10

19 сен 2014, 19:09

Anonymous Перейти к последнему сообщению



Сейчас этот форум просматривают: нет зарегистрированных пользователей и гости: 1


Вы не можете начинать темы
Вы не можете отвечать на сообщения
Вы не можете редактировать свои сообщения
Вы не можете удалять свои сообщения
Вы не можете добавлять вложения

Перейти:  

!ВНИМАНИЕ!
 Ресурс не предоставляет электронные версии произведений, а занимается лишь коллекционированием и каталогизацией ссылок, присылаемых и публикуемых на форуме нашими читателями. Если вы являетесь правообладателем какого-либо представленного материала и не желаете чтобы ссылка на него находилась в нашем каталоге, свяжитесь с нами и мы незамедлительно удалим её. Файлы для обмена на трекере предоставлены пользователями сайта, и администрация не несёт ответственности за их содержание. Просьба не заливать файлы, защищенные авторскими правами, а также файлы нелегального содержания!