На всех торрентах на трекере установлена скидка на скачивание в размере 100 процентов(а).
 Возможность скачивания торрента НЕ зависит от ограничений при низком ратио, низком аплоаде, требуемом ратио или требуемом аплоаде.


Начать новую тему Ответить на тему
Статистика раздачи
Размер: 8.22 ГБ | Добавлен: 03 ноя 2014, 23:29 | Скачали: 270
Сидеров: 29  [0 байт/сек]    Личеров: 6  [0 байт/сек]
Пред. тема | След. тема 

Автор
Сообщение

СообщениеДобавлено: 03 ноя 2014, 23:29 

Название: Спи со мной
Оригинальное название: Lie with Me
Год выпуска: 2005
Жанр: Драма, мелодрама, эротика, экранизация
Режиссер: Клемент Вирго
В ролях: Лоурен Ли Смит, Эрик Бальфур, Полли Шеннон, Майко Нгуйен, Майкл Фаччоло, Кейт Линч, Рон Уайт, Кристин Леман, Дон Фрэнкс, Ришар Шевалло, Фрэнк Чисурин, Никола Липман, Тереза Това

О фильме: Экранизация одноименного романа Тамары Бергер. Лейла — свободная, сексуальная и ненасытная женщина. Множество мужчин не смогли утолить ее «голод». Но однажды судьба ее сводит с Дэвидом. Он художник, из-под его руки выходят прекрасные творения. Но в постели он агрессивен и, так же как и Лейла, ненасытен. Кажется, что они созданы друг для друга. Однако каждый раз, как они встречаются, что-то происходит как на физическом, так и на эмоциональном уровне. Их отношения становятся все более запутанными, и одному лишь Богу известно к чему это все может привести.



Страна: Канада
Студия: Conquering Lion Pictures, Optix Digital Pictures
Продолжительность: 01:29:10
Перевод: Профессиональный двухголосый закадровый


Кодек: MPEG-4 AVC
Качество: BDRip (1080p)
Видео: 12.3 Мбит/с, 1920x1080, 25.000 кадр/с
Звук: Русский, английский (АС3, 6 ch, 448 Кбит/с)
Субтитры: Русские, английские







Награды:
- 2006. МКФ в Вашингтоне (Washington DC Independent Film Festival, США): Лучший фильм

Номинации:
- 2006. Премия Джини (Genie Awards, Канада): Лучший оригинальная музыка к фильму (Байрон Вонг), Лучший звук


General
Unique ID : 246193015357007108794458543529869698044 (0xB9370CCF420616EF981DE7AAFA97E3FC)
Complete name : E:Lie with Me. 2005. BDRip (1080p) - ylnian.mkv
Format : Matroska
Format version : Version 4 / Version 2
File size : 8.22 GiB
Duration : 1h 29mn
Overall bit rate : 13.2 Mbps
Movie name : Lie with Me. 2005. BDRip (1080p) - ylnian (by HDLine)
Encoded date : UTC 2014-05-10 14:37:48
Writing application : mkvmerge v6.8.0 ('Theme for Great Cities') 64bit built on Mar 2 2014 21:34:26
Writing library : libebml v1.3.0 + libmatroska v1.4.1

Video
ID : 1
Format : AVC
Format/Info : Advanced Video Codec
Format profile : High@L4.1
Format settings, CABAC : Yes
Format settings, ReFrames : 2 frames
Codec ID : V_MPEG4/ISO/AVC
Duration : 1h 29mn
Bit rate : 12.3 Mbps
Width : 1 920 pixels
Height : 1 080 pixels
Display aspect ratio : 16:9
Frame rate mode : Constant
Frame rate : 25.000 fps
Color space : YUV
Chroma subsampling : 4:2:0
Bit depth : 8 bits
Scan type : Progressive
Bits/(Pixel*Frame) : 0.237
Stream size : 7.50 GiB (91%)
Title : Lie.with.me.Liebe.mich.2005.German.DL.1080p.BluRay.x264-msd
Writing library : x264 core 118 r2085
Encoding settings : cabac=1 / ref=1 / deblock=1:0:0 / analyse=0x3:0x133 / me=hex / subme=7 / psy=1 / psy_rd=1.00:0.00 / mixed_ref=0 / me_range=16 / chroma_me=1 / trellis=1 / 8x8dct=1 / cqm=0 / deadzone=21,11 / fast_pskip=1 / chroma_qp_offset=-2 / threads=12 / sliced_threads=0 / nr=0 / decimate=0 / interlaced=0 / bluray_compat=0 / constrained_intra=0 / bframes=3 / b_pyramid=0 / b_adapt=1 / b_bias=0 / direct=3 / weightb=1 / open_gop=0 / weightp=2 / keyint=250 / keyint_min=25 / scenecut=40 / intra_refresh=0 / rc_lookahead=40 / rc=2pass / mbtree=1 / bitrate=12300 / ratetol=1.0 / qcomp=0.60 / qpmin=10 / qpmax=51 / qpstep=4 / cplxblur=20.0 / qblur=0.5 / vbv_maxrate=24000 / vbv_bufsize=24000 / nal_hrd=none / ip_ratio=1.40 / aq=1:1.00
Language : English
Default : Yes
Forced : Yes

Audio #1
ID : 2
Format : AC-3
Format/Info : Audio Coding 3
Mode extension : CM (complete main)
Format settings, Endianness : Big
Codec ID : A_AC3
Duration : 1h 29mn
Bit rate mode : Constant
Bit rate : 448 Kbps
Channel(s) : 6 channels
Channel positions : Front: L C R, Side: L R, LFE
Sampling rate : 48.0 KHz
Bit depth : 16 bits
Compression mode : Lossy
Stream size : 286 MiB (3%)
Title : DVO (AC3 5.1 448 kbps)
Language : Russian
Default : Yes
Forced : Yes

Audio #2
ID : 3
Format : AC-3
Format/Info : Audio Coding 3
Mode extension : CM (complete main)
Format settings, Endianness : Big
Codec ID : A_AC3
Duration : 1h 29mn
Bit rate mode : Constant
Bit rate : 448 Kbps
Channel(s) : 6 channels
Channel positions : Front: L C R, Side: L R, LFE
Sampling rate : 48.0 KHz
Bit depth : 16 bits
Compression mode : Lossy
Stream size : 286 MiB (3%)
Title : AC3 5.1 448 kbps
Language : English
Default : No
Forced : No

Text #1
ID : 4
Format : UTF-8
Codec ID : S_TEXT/UTF8
Codec ID/Info : UTF-8 Plain Text
Language : Russian
Default : Yes
Forced : No

Text #2
ID : 5
Format : UTF-8
Codec ID : S_TEXT/UTF8
Codec ID/Info : UTF-8 Plain Text
Language : English
Default : No
Forced : No

Menu
00:00:00.000 : en:Вечеринка
00:11:43.200 : en:Незнакомец
00:29:39.600 : en:Снова к нему
00:46:30.000 : en:Отец
00:56:23.400 : en:Уходи
01:04:47.400 : en:Прости меня
01:19:23.400 : en:Свадьба
01:25:36.000 : en:Заключительные титры


Релиз от: ylnian
загрузка...
Правила, инструкции, FAQ!!!
Торрент  Добавлен [03 ноя 2014, 23:29] Скачать торрент
Скачать торрент
[ Размер 21.18 КБ / Просмотров 10 ]

Статус
Проверен 
 
Размер  8.22 ГБ
Приватный: Нет (DHT включён)
.torrent скачан  270
Как залить торрент? | Как скачать Torrent? | Как смотреть и слушать онлайн?  


     Отправить личное сообщение
   
Страница 1 из 1
Показать сообщения за:  Поле сортировки  
Начать новую тему Ответить на тему

   Похожие торренты   Автор   Ответы   Просмотры   Последнее сообщение 
В этой теме нет новых непрочитанных сообщений. Скачать торрент Изо всех сил / Over the Top (2005) BDRip 1080p | P, P2, A

в форуме 720p | 1080p, Размер: 7.75 ГБ, Здоровье: 0%

Anonymous

0
0|0

22
0

14 мар 2014, 08:10

Anonymous Перейти к последнему сообщению

В этой теме нет новых непрочитанных сообщений. Скачать торрент Казанова / Casanova (2005) BDRip 1080p

в форуме 720p | 1080p, Размер: 13.26 ГБ, Здоровье: 0%

Anonymous

0
0|0

23
0

15 мар 2014, 14:08

Anonymous Перейти к последнему сообщению

В этой теме нет новых непрочитанных сообщений. Скачать торрент Проверен Ангел-А / Angel-A (2005) BDRip 1080p | D, A, L1

в форуме 720p | 1080p, Размер: 7.9 ГБ, Здоровье: 100%

Anonymous

0
61|21

25
138

08 ноя 2014, 22:22

Anonymous Перейти к последнему сообщению

В этой теме нет новых непрочитанных сообщений. Скачать торрент Проверен Симулянт / The Ringer (2005) BDRip 1080p | P, P2

в форуме 720p | 1080p, Размер: 9.8 ГБ, Здоровье: 100%

Гость

0
8|2

64
27

10 янв 2015, 22:13

Гость Перейти к последнему сообщению

В этой теме нет новых непрочитанных сообщений. Скачать торрент Проверен Подальше от тебя / In Her Shoes (2005) BDRip 1080p | D

в форуме 720p | 1080p, Размер: 15.06 ГБ, Здоровье: 100%

Гость

0
48|14

43
98

15 янв 2015, 19:42

Гость Перейти к последнему сообщению



Сейчас этот форум просматривают: нет зарегистрированных пользователей и гости: 2


Вы не можете начинать темы
Вы не можете отвечать на сообщения
Вы не можете редактировать свои сообщения
Вы не можете удалять свои сообщения
Вы не можете добавлять вложения

Перейти:  

!ВНИМАНИЕ!
 Ресурс не предоставляет электронные версии произведений, а занимается лишь коллекционированием и каталогизацией ссылок, присылаемых и публикуемых на форуме нашими читателями. Если вы являетесь правообладателем какого-либо представленного материала и не желаете чтобы ссылка на него находилась в нашем каталоге, свяжитесь с нами и мы незамедлительно удалим её. Файлы для обмена на трекере предоставлены пользователями сайта, и администрация не несёт ответственности за их содержание. Просьба не заливать файлы, защищенные авторскими правами, а также файлы нелегального содержания!