На всех торрентах на трекере установлена скидка на скачивание в размере 100 процентов(а).
 Возможность скачивания торрента НЕ зависит от ограничений при низком ратио, низком аплоаде, требуемом ратио или требуемом аплоаде.


Начать новую тему Ответить на тему
Статистика раздачи
Размер: 5.24 ГБ | Добавлен: 03 ноя 2014, 12:43 | Скачали: 157
Сидеров: 13  [0 байт/сек]    Личеров: 1  [0 байт/сек]
Пред. тема | След. тема 

Автор
Сообщение

СообщениеДобавлено: 03 ноя 2014, 12:43 

Название: Всегда
Оригинальное название: Always
Год выхода: 1989
Жанр: фантастика, фэнтези, мелодрама
Режиссер: Стивен Спилберг / Steven Spielberg
В ролях: Ричард Дрейфусс, Холли Хантер, Джон Гудмэн, Одри Хепберн, Брэд Джонсон, Кит Дэвид

О фильме:
Пит Сэндич - легендарная личность, лётчик-ас и человек необыкновенной отваги. У него была замечательная жизнь: интересная работа, любимая женщина и лучший друг. И вот однажды, ни секунды не сомневаясь, Пит жертвует этой жизнью, чтобы спасти товарища. Но смерть забрала героя раньше, чем он успел убедиться в том, что с близкими ему людьми всё будет хорошо. И пилот возвращается, чтобы в этом убедиться, но уже... как призрак...

Страна: США
Студия: Universal Pictures, United Artists, Amblin Entertainment
Продолжительность: 02:02:22.560
Перевод: Профессиональный (двухголосый закадровый) №1*
Профессиональный (двухголосый закадровый) №2
Авторский (одноголосый закадровый) Живов
Авторский (одноголосый закадровый) А. Гаврилов

* в сети заявлен как многоголосый


Кодек: h.264
Качество: BDRip 720p
Видео: 1280x688 (1.85:1), 23.976 fps, AVC, ~4709 Kbps, 0.223 bits/pixel
Звук:
Русский, 48.0 KHz, AC3, 2 ch, 192 Kbps (Профессиональный двухголосый закадровый) №1
Русский, 48.0 KHz, AC3, 2 ch, 128 Kbps (Профессиональный двухголосый закадровый) №2
Русский, 48.0 KHz, AC3, 6 ch, 320 Kbps (Авторский одноголосый Живов)
Русский, 48.0 KHz, AC3, 2 ch, 128 Kbps (Авторский одноголосый Гаврилов) (двойное моно)
Английский, 48.0 KHz, AC3, 6 ch, 640 Kbps
Субтитры: Английские, PGS

Общее
Уникальный идентификатор : 187550277237097695867451640282331703421 (0x8D18DE979C80A289AE64A820F7AF687D)
Полное имя : H:FilmsVsegda.1989.BDRip720p.mkv
Формат : Matroska
Версия формата : Version 4 / Version 2
Размер файла : 5,24 Гбайт
Продолжительность : 2 ч. 2 м.
Общий поток : 6128 Кбит/сек
Дата кодирования : UTC 2014-11-02 16:54:55
Программа кодирования : mkvmerge v7.3.0 ('Nouages') 64bit built on Oct 22 2014 18:53:34
Библиотека кодирования : libebml v1.3.0 + libmatroska v1.4.1
DURATION : 01:55:58.202000000
NUMBER_OF_FRAMES : 2877
NUMBER_OF_BYTES : 8330445
_STATISTICS_WRITING_APP : mkvmerge v7.3.0 ('Nouages') 64bit built on Oct 22 2014 18:53:34
_STATISTICS_WRITING_DATE_UTC : 2014-11-02 16:54:55
_STATISTICS_TAGS : BPS DURATION NUMBER_OF_FRAMES NUMBER_OF_BYTES

Видео
Идентификатор : 1
Формат : AVC
Формат/Информация : Advanced Video Codec
Профиль формата : High@L4.1
Параметр CABAC формата : Да
Параметр ReFrames формата : 9 кадров
Идентификатор кодека : V_MPEG4/ISO/AVC
Продолжительность : 2 ч. 2 м.
Битрейт : 4709 Кбит/сек
Ширина : 1280 пикселей
Высота : 688 пикселей
Соотношение сторон : 1,85:1
Режим частоты кадров : Постоянный
Частота кадров : 23,976 кадра/сек
Цветовое пространство : YUV
Субдискретизация насыщенности : 4:2:0
Битовая глубина : 8 бит
Тип развёртки : Прогрессивная
Бит/(Пиксели*Кадры) : 0.223
Размер потока : 3,93 Гбайт (75%)
Библиотека кодирования : x264 core 142 r2431 ac76440
Настройки программы : cabac=1 / ref=9 / deblock=1:-3:-3 / analyse=0x3:0x133 / me=umh / subme=10 / psy=1 / psy_rd=1.10:0.10 / mixed_ref=1 / me_range=32 / chroma_me=1 / trellis=2 / 8x8dct=1 / cqm=0 / deadzone=21,11 / fast_pskip=0 / chroma_qp_offset=-3 / threads=8 / lookahead_threads=2 / sliced_threads=0 / nr=0 / decimate=0 / interlaced=0 / bluray_compat=0 / constrained_intra=0 / bframes=12 / b_pyramid=2 / b_adapt=2 / b_bias=0 / direct=3 / weightb=1 / open_gop=0 / weightp=2 / keyint=240 / keyint_min=23 / scenecut=60 / intra_refresh=0 / rc_lookahead=60 / rc=2pass / mbtree=0 / bitrate=4709 / ratetol=1.0 / qcomp=0.60 / qpmin=0 / qpmax=69 / qpstep=4 / cplxblur=20.0 / qblur=0.5 / vbv_maxrate=50000 / vbv_bufsize=62500 / nal_hrd=none / filler=0 / ip_ratio=1.40 / pb_ratio=1.30 / aq=1:1.00
Default : Нет
Forced : Нет
Основные цвета : BT.709
Характеристики трансфера : BT.709
Коэффициенты матрицы : BT.709
DURATION : 02:02:22.502000000
NUMBER_OF_FRAMES : 176044
NUMBER_OF_BYTES : 4321259181
_STATISTICS_WRITING_APP : mkvmerge v7.3.0 ('Nouages') 64bit built on Oct 22 2014 18:53:34
_STATISTICS_WRITING_DATE_UTC : 2014-11-02 16:54:55
_STATISTICS_TAGS : BPS DURATION NUMBER_OF_FRAMES NUMBER_OF_BYTES

Аудио #1
Идентификатор : 2
Формат : AC-3
Формат/Информация : Audio Coding 3
Расширение режима : CM (complete main)
Параметр Endianness формата : Big
Идентификатор кодека : A_AC3
Продолжительность : 2 ч. 2 м.
Вид битрейта : Постоянный
Битрейт : 192 Кбит/сек
Каналы : 2 канала
Расположение каналов : Front: L R
Частота : 48,0 КГц
Битовая глубина : 16 бит
Метод сжатия : С потерями
Размер потока : 168 Мбайт (3%)
Заголовок : DVO
Язык : Russian
Default : Да
Forced : Нет

Аудио #2
Идентификатор : 3
Формат : AC-3
Формат/Информация : Audio Coding 3
Расширение режима : CM (complete main)
Параметр Endianness формата : Big
Идентификатор кодека : A_AC3
Продолжительность : 2 ч. 2 м.
Вид битрейта : Постоянный
Битрейт : 128 Кбит/сек
Каналы : 2 канала
Расположение каналов : Front: L R
Частота : 48,0 КГц
Битовая глубина : 16 бит
Метод сжатия : С потерями
Размер потока : 112 Мбайт (2%)
Заголовок : DVO
Язык : Russian
Default : Нет
Forced : Нет

Аудио #3
Идентификатор : 4
Формат : AC-3
Формат/Информация : Audio Coding 3
Расширение режима : CM (complete main)
Параметр Endianness формата : Big
Идентификатор кодека : A_AC3
Продолжительность : 2 ч. 2 м.
Вид битрейта : Постоянный
Битрейт : 320 Кбит/сек
Каналы : 6 каналов
Расположение каналов : Front: L C R, Side: L R, LFE
Частота : 48,0 КГц
Битовая глубина : 16 бит
Метод сжатия : С потерями
Размер потока : 280 Мбайт (5%)
Заголовок : Zhivov
Язык : Russian
Default : Нет
Forced : Нет

Аудио #4
Идентификатор : 5
Формат : AC-3
Формат/Информация : Audio Coding 3
Расширение режима : CM (complete main)
Параметр Endianness формата : Big
Идентификатор кодека : A_AC3
Продолжительность : 2 ч. 2 м.
Вид битрейта : Постоянный
Битрейт : 128 Кбит/сек
Каналы : 2 канала
Расположение каналов : Front: L R
Частота : 48,0 КГц
Битовая глубина : 16 бит
Метод сжатия : С потерями
Размер потока : 112 Мбайт (2%)
Заголовок : Gavrilov
Язык : Russian
Default : Нет
Forced : Нет

Аудио #5
Идентификатор : 6
Формат : AC-3
Формат/Информация : Audio Coding 3
Расширение режима : CM (complete main)
Параметр Endianness формата : Big
Идентификатор кодека : A_AC3
Продолжительность : 2 ч. 2 м.
Вид битрейта : Постоянный
Битрейт : 640 Кбит/сек
Каналы : 6 каналов
Расположение каналов : Front: L C R, Side: L R, LFE
Частота : 48,0 КГц
Битовая глубина : 16 бит
Метод сжатия : С потерями
Размер потока : 560 Мбайт (10%)
Язык : English
Default : Нет
Forced : Нет

Текст
Идентификатор : 7
Формат : PGS
Режим смешивания : zlib
Идентификатор кодека : S_HDMV/PGS
Идентификатор кодека/Информация : The same subtitle format used on BDs/HD-DVDs
Язык : English
Default : Нет
Forced : Нет

Меню
00:00:00.000 : en:00:00:00.000
00:03:05.644 : en:00:03:05.644
00:09:58.223 : en:00:09:58.223
00:21:57.733 : en:00:21:57.733
00:33:21.124 : en:00:33:21.124
00:38:36.940 : en:00:38:36.940
00:44:35.673 : en:00:44:35.673
00:53:58.068 : en:00:53:58.068
00:57:55.180 : en:00:57:55.180
01:01:49.664 : en:01:01:49.664
01:06:38.912 : en:01:06:38.912
01:16:24.872 : en:01:16:24.872
01:20:43.130 : en:01:20:43.130
01:34:22.615 : en:01:34:22.615
01:36:32.245 : en:01:36:32.245
01:41:59.864 : en:01:41:59.864
01:49:10.043 : en:01:49:10.043
01:56:21.266 : en:01:56:21.266


frame I:918 Avg QP:17.52 size:114695
frame P:37560 Avg QP:20.25 size: 45572
frame B:137566 Avg QP:22.32 size: 18204

BDRip720p
Blu Ray


Релиз от: Temperest
загрузка...
Правила, инструкции, FAQ!!!
Торрент  Добавлен [03 ноя 2014, 12:43] Скачать торрент
Скачать торрент
[ Размер 13.7 КБ / Просмотров 9 ]

Статус
Проверен 
 
Размер  5.24 ГБ
Приватный: Нет (DHT включён)
.torrent скачан  157
Как залить торрент? | Как скачать Torrent? | Как смотреть и слушать онлайн?  


     Отправить личное сообщение
   
Страница 1 из 1
Показать сообщения за:  Поле сортировки  
Начать новую тему Ответить на тему

   Похожие торренты   Автор   Ответы   Просмотры   Последнее сообщение 
В этой теме нет новых непрочитанных сообщений. Скачать торрент Проверен Свяжи меня / Átame! (1989) BDRip 720p | U.S. transfer | P, P2

в форуме 720p | 1080p, Размер: 9.5 ГБ, Здоровье: ???%

Гость

0
0|16

44
0

06 янв 2015, 16:38

Гость Перейти к последнему сообщению

В этой теме нет новых непрочитанных сообщений. Скачать торрент Проверен Кошмар на улице Вязов 5: Дитя сна / A Nightmare on Elm Street: The Dream Child (1989) BDRip 720p

в форуме 720p | 1080p, Размер: 3.5 ГБ, Здоровье: 100%

Anonymous

0
5|0

77
142

17 авг 2014, 08:21

Anonymous Перейти к последнему сообщению

В этой теме нет новых непрочитанных сообщений. Скачать торрент Проверен Слепая ярость / Blind Fury (1989) HDTVRip 720p | D, P, P2, A

в форуме 720p | 1080p, Размер: 4.37 ГБ, Здоровье: 100%

Гость

0
30|19

120
23

28 авг 2015, 23:36

Гость Перейти к последнему сообщению

В этой теме нет новых непрочитанных сообщений. Скачать торрент Проверен Всегда / Always (1989) BDRip 1080p

в форуме 720p | 1080p, Размер: 12.32 ГБ, Здоровье: 100%

Anonymous

0
6|1

26
84

03 ноя 2014, 12:45

Anonymous Перейти к последнему сообщению

В этой теме нет новых непрочитанных сообщений. Скачать торрент Проверен Предместье / Провинциалы / The 'Burbs (1989) BDRip

в форуме Комедии, Размер: 1.45 ГБ, Здоровье: 100%

Гость

0
22|4

85
22

06 фев 2016, 01:05

Гость Перейти к последнему сообщению



Сейчас этот форум просматривают: нет зарегистрированных пользователей и гости: 2


Вы не можете начинать темы
Вы не можете отвечать на сообщения
Вы не можете редактировать свои сообщения
Вы не можете удалять свои сообщения
Вы не можете добавлять вложения

Перейти:  

!ВНИМАНИЕ!
 Ресурс не предоставляет электронные версии произведений, а занимается лишь коллекционированием и каталогизацией ссылок, присылаемых и публикуемых на форуме нашими читателями. Если вы являетесь правообладателем какого-либо представленного материала и не желаете чтобы ссылка на него находилась в нашем каталоге, свяжитесь с нами и мы незамедлительно удалим её. Файлы для обмена на трекере предоставлены пользователями сайта, и администрация не несёт ответственности за их содержание. Просьба не заливать файлы, защищенные авторскими правами, а также файлы нелегального содержания!