На всех торрентах на трекере установлена скидка на скачивание в размере 100 процентов(а).
 Возможность скачивания торрента НЕ зависит от ограничений при низком ратио, низком аплоаде, требуемом ратио или требуемом аплоаде.


Начать новую тему Ответить на тему
Статистика раздачи
Размер: 4.85 ГБ | Добавлен: 03 ноя 2014, 12:13 | Скачали: 295
Сидеров: 24  [0 байт/сек]    Личеров: 3  [0 байт/сек]
Пред. тема | След. тема 

Автор
Сообщение

СообщениеДобавлено: 03 ноя 2014, 12:13 

Название: Патология
Оригинальное название: Pathology
Год выхода: 2008
Жанр: ужасы, триллер, криминал
Режиссер: Марк Шолерманн

В ролях: Майло Вентимилья, Майкл Уэстон, Алисса Милано, Лорен Ли Смит, Джонни Витуорт, Джон де Ланси, Мей Меланкон, Кейр О’Доннелл, Бадди Льюис, Дэн Каллахан

О фильме:
Молодой и талантливый доктор Грей, закончив Гарвард с отличием, мечтает стать патологоанатомом. И где как не в лучшей клинике города, он может поднабраться опыта и осуществить свою мечту. Рассудив таким образом, Грей поступает в интернатуру в огромный госпиталь.

Здесь он заводит новые знакомства, благодаря которым у него появляются и новые увлечения. Например, вечерами он стал любить собираться с коллегами в морге и глумиться над трупами бомжей и наркоманов. Однако, вскоре Грей понимает, что его жизнь и он сам изменились не в лучшую сторону. Но осознав свое нежелание участвовать в проказах своих новоиспеченных товарищей, он вскоре понял, что на месте «неизвестного трупа» в морге может оказаться он сам.



Страна: США
Продолжительность: 01:34:49
Перевод: Дублированный
Субтитры: Русские, Английские


Кодек: x.264
Качество: BDRip-1080p (BDRemux / 1080p)
Видео: 1920x816, 23,976 fps, 6500 kbps
Аудио 1: (RUS) 48 kHz, AC3 Dolby Digital, 6 ch, ~384.00 kbps
Аудио 2: (ENG) 48 kHz, AC3 Dolby Digital, 6 ch, ~448.00 kbps

General
Unique ID : 225070201107837004915719138938189945006 (0xA952F1A958E5BDE19EBCBD613CE298AE)
Complete name : F:Pathology.(2008).BDRip-1080p.[-=DoMiNo=-].mkv
Format : Matroska
Format version : Version 4 / Version 2
File size : 4.85 GiB
Duration : 1h 34mn
Overall bit rate : 7 329 Kbps
Encoded date : UTC 2014-11-03 04:16:04
Writing application : mkvmerge v7.3.0 ('Nouages') 64bit built on Oct 22 2014 18:53:34
Writing library : libebml v1.3.0 + libmatroska v1.4.1
DURATION : 01:27:47.200000000
NUMBER_OF_FRAMES : 895
NUMBER_OF_BYTES : 33210
_STATISTICS_WRITING_APP : mkvmerge v7.3.0 ('Nouages') 64bit built on Oct 22 2014 18:53:34
_STATISTICS_WRITING_DATE_UTC : 2014-11-03 04:16:04
_STATISTICS_TAGS : BPS DURATION NUMBER_OF_FRAMES NUMBER_OF_BYTES

Video
ID : 1
Format : AVC
Format/Info : Advanced Video Codec
Format profile : High@L4.1
Format settings, CABAC : Yes
Format settings, ReFrames : 5 frames
Codec ID : V_MPEG4/ISO/AVC
Duration : 1h 34mn
Bit rate : 6 500 Kbps
Width : 1 920 pixels
Height : 816 pixels
Display aspect ratio : 2.35:1
Frame rate mode : Constant
Frame rate : 23.976 fps
Color space : YUV
Chroma subsampling : 4:2:0
Bit depth : 8 bits
Scan type : Progressive
Bits/(Pixel*Frame) : 0.173
Stream size : 4.21 GiB (87%)
Writing library : x264 core 130 r2273 b3065e6
Encoding settings : cabac=1 / ref=5 / deblock=1:-3:-3 / analyse=0x3:0x133 / me=umh / subme=11 / psy=1 / psy_rd=1.00:0.50 / mixed_ref=1 / me_range=48 / chroma_me=1 / trellis=2 / 8x8dct=1 / cqm=0 / deadzone=21,11 / fast_pskip=0 / chroma_qp_offset=-3 / threads=12 / lookahead_threads=4 / sliced_threads=0 / slices=4 / nr=0 / decimate=1 / interlaced=0 / bluray_compat=0 / constrained_intra=0 / bframes=6 / b_pyramid=2 / b_adapt=2 / b_bias=0 / direct=3 / weightb=1 / open_gop=0 / weightp=2 / keyint=250 / keyint_min=23 / scenecut=40 / intra_refresh=0 / rc=2pass / mbtree=0 / bitrate=6500 / ratetol=1.0 / qcomp=0.70 / qpmin=0 / qpmax=69 / qpstep=4 / cplxblur=20.0 / qblur=0.5 / ip_ratio=1.40 / pb_ratio=1.30 / aq=1:1.50
Language : English
Default : Yes
Forced : No

Audio #1
ID : 2
Format : AC-3
Format/Info : Audio Coding 3
Mode extension : CM (complete main)
Format settings, Endianness : Big
Codec ID : A_AC3
Duration : 1h 34mn
Bit rate mode : Constant
Bit rate : 384 Kbps
Channel(s) : 6 channels
Channel positions : Front: L C R, Side: L R, LFE
Sampling rate : 48.0 KHz
Bit depth : 16 bits
Compression mode : Lossy
Stream size : 260 MiB (5%)
Title : DUB
Language : Russian
Default : Yes
Forced : No

Audio #2
ID : 3
Format : AC-3
Format/Info : Audio Coding 3
Mode extension : CM (complete main)
Format settings, Endianness : Big
Codec ID : A_AC3
Duration : 1h 34mn
Bit rate mode : Constant
Bit rate : 448 Kbps
Channel(s) : 6 channels
Channel positions : Front: L C R, Side: L R, LFE
Sampling rate : 48.0 KHz
Bit depth : 16 bits
Compression mode : Lossy
Stream size : 304 MiB (6%)
Title : ENG
Language : English
Default : No
Forced : No

Text #1
ID : 4
Format : UTF-8
Codec ID : S_TEXT/UTF8
Codec ID/Info : UTF-8 Plain Text
Title : RUS
Language : Russian
Default : Yes
Forced : No

Text #2
ID : 5
Format : UTF-8
Codec ID : S_TEXT/UTF8
Codec ID/Info : UTF-8 Plain Text
Title : ENG
Language : English
Default : No
Forced : No





загрузка...
Правила, инструкции, FAQ!!!
Торрент  Добавлен [03 ноя 2014, 12:13] Скачать торрент
Скачать торрент
[ Размер 12.8 КБ / Просмотров 5 ]

Статус
Проверен 
 
Размер  4.85 ГБ
Приватный: Нет (DHT включён)
.torrent скачан  295
Как залить торрент? | Как скачать Torrent? | Как смотреть и слушать онлайн?  


     Отправить личное сообщение
   
Страница 1 из 1
Показать сообщения за:  Поле сортировки  
Начать новую тему Ответить на тему

   Похожие торренты   Автор   Ответы   Просмотры   Последнее сообщение 
В этой теме нет новых непрочитанных сообщений. Скачать торрент Патология / Pathology (Марк Шолерманн / Marc Schoelermann) [2008, триллер, BDRip]

в форуме Триллеры, Размер: 1.45 ГБ, Здоровье: ???%

Anonymous

0
0|1

33
0

04 фев 2014, 21:26

Anonymous Перейти к последнему сообщению

В этой теме нет новых непрочитанных сообщений. Скачать торрент Патология / Pathology (Марк Шолерманн / Marc Schoelermann) [2008 г., Триллер, криминал, BDRip-AVC] 720p

в форуме Триллеры, Размер: 2.18 ГБ, Здоровье: 0%

Anonymous

0
0|0

45
0

16 апр 2014, 07:52

Anonymous Перейти к последнему сообщению

В этой теме нет новых непрочитанных сообщений. Скачать торрент Проверен Jonathon Keats / Джонатон Китс - Lighter Than Vanity/Химеры Хемингуэя и The Pathology of Lies/Патология лжи [2006,2004, RTF, RUS]

в форуме Зарубежная литература (XX и XXI век), Размер: 1.07 МБ, Здоровье: 0%

Anonymous

0
0|0

6
1

08 сен 2016, 18:51

Anonymous Перейти к последнему сообщению

В этой теме нет новых непрочитанных сообщений. Скачать торрент 10 000 лет до н.э. / 10,000 BC (2008) BDRip 1080p | Лицензия

в форуме 720p | 1080p, Размер: 6.71 ГБ, Здоровье: 0%

Anonymous

0
0|0

110
0

09 фев 2014, 21:02

Anonymous Перейти к последнему сообщению

В этой теме нет новых непрочитанных сообщений. Скачать торрент Проверен Безумие / The Wackness (2008) BDRip 1080p | Р, P2, L1

в форуме 720p | 1080p, Размер: 7.18 ГБ, Здоровье: 80%

Гость

0
16|20

66
10

06 фев 2016, 12:23

Гость Перейти к последнему сообщению



Сейчас этот форум просматривают: нет зарегистрированных пользователей и гости: 2


Вы не можете начинать темы
Вы не можете отвечать на сообщения
Вы не можете редактировать свои сообщения
Вы не можете удалять свои сообщения
Вы не можете добавлять вложения

Перейти:  

!ВНИМАНИЕ!
 Ресурс не предоставляет электронные версии произведений, а занимается лишь коллекционированием и каталогизацией ссылок, присылаемых и публикуемых на форуме нашими читателями. Если вы являетесь правообладателем какого-либо представленного материала и не желаете чтобы ссылка на него находилась в нашем каталоге, свяжитесь с нами и мы незамедлительно удалим её. Файлы для обмена на трекере предоставлены пользователями сайта, и администрация не несёт ответственности за их содержание. Просьба не заливать файлы, защищенные авторскими правами, а также файлы нелегального содержания!