На всех торрентах на трекере установлена скидка на скачивание в размере 100 процентов(а).
 Возможность скачивания торрента НЕ зависит от ограничений при низком ратио, низком аплоаде, требуемом ратио или требуемом аплоаде.


Начать новую тему Ответить на тему
Статистика раздачи
Размер: 7.76 ГБ | Добавлен: 02 ноя 2014, 17:02 | Скачали: 0
Сидеров: 8  [0 байт/сек]    Личеров: 4  [0 байт/сек]
Пред. тема | След. тема 

Автор
Сообщение

СообщениеДобавлено: 02 ноя 2014, 17:02 

Год выпуска: 1997
Жанр: Боевик, Триллер, Драма, Приключения

Описание фильма:
Самолет президента — самый охраняемый объект ВВС США. Президент возвращается с переговоров в Москве вместе с семьей и администрацией. Но едва самолет поднимается в воздух, его захватывает группа террористов, которыми руководит непримиримый коммунист Коршунов. Он угрожает убить заложников, если их лидер, генерал Радек, заключенный в тюрьму, не будет освобожден. Президенту приходится бороться за жизнь близких ему людей и за будущее человечества.

Режиссер: Вольфганг Петерсен
Актеры: Харрисон Форд, Гари Олдман, Гленн Клоуз, Венди Крюсон, Лизель Мэтьюз, Пол Гилфойл, Ксандер Беркли, Уильям Х. Мэйси, Дин Стокуэлл, Том Эверетт

Перевод: Дублированный
Язык субтитров: Русские, Английские
Вид субтитров: Вшитые (отключаемые)



Дата мировой премьеры: 21.07.1997
Дата выхода DVD релиза: 26.10.2010
Дата выхода Blu-Ray релиза: 20.09.2011

Рейтинг MPAA: R
Возраст: 16+

Продолжительность: 02:04:37
Качество видео: BDRip

Видео: MPEG-4 AVC/H.264, 1920x800, ~7624 Kbps, 23.976 fps
Аудио №1: AC3 5.1, 640 Kbps, 48 kHz, 16-bit [Русский дубляж]
Аудио №2: AC3 5.1, 640 Kbps, 48 kHz, 16-bit [Английский оригинал]
Код:
Код:
General
Unique ID                                : 209616727361618328834796940990354299385 (0x9DB2B694BC387226B1D8444DDFCC19F9)
Complete name                            : D:\Films\Самолёт президента\Самолет президента.1997.BDRip.1080p.Rus.Eng.mkv
Format                                   : Matroska
Format version                           : Version 2
File size                                : 7.76 GiB
Duration                                 : 2h 4mn
Overall bit rate                         : 8 915 Kbps
Movie name                               : Самолет президента.1997
Encoded date                             : UTC 2014-02-13 15:41:32
Writing application                      : mkvmerge v5.8.0 ('No Sleep / Pillow') built on Sep  2 2012 15:37:04
Writing library                          : libebml v1.2.3 + libmatroska v1.3.0

Video
ID                                       : 1
Format                                   : AVC
Format/Info                              : Advanced Video Codec
Format profile                           :
Format settings, CABAC                   : Yes
Format settings, ReFrames                : 5 frames
Codec ID                                 : V_MPEG4/ISO/AVC
Duration                                 : 2h 4mn
Bit rate                                 : 7 624 Kbps
Width                                    : 1 920 pixels
Height                                   : 800 pixels
Display aspect ratio                     : 2.40:1
Frame rate mode                          : Constant
Frame rate                               : 23.976 fps
Color space                              : YUV
Chroma subsampling                       : 4:2:0
Bit depth                                : 8 bits
Scan type                                : Progressive
Bits/(Pixel*Frame)                       : 0.207
Stream size                              : 6.49 GiB (84%)
Title                                    : Rip by Boriy
Writing library                          : x264 core 142 r2389 956c8d8
Encoding settings                        : cabac=1 / ref=5 / deblock=1:-3:-3 / analyse=0x3:0x113 / me=umh / subme=11 / psy=1 / psy_rd=1.00:0.00 / mixed_ref=1 / me_range=32 / chroma_me=1 / trellis=2 / 8x8dct=1 / cqm=0 / deadzone=21,11 / fast_pskip=0 / chroma_qp_offset=-2 / threads=12 / lookahead_threads=1 / sliced_threads=0 / nr=0 / decimate=0 / interlaced=0 / bluray_compat=0 / constrained_intra=0 / bframes=6 / b_pyramid=2 / b_adapt=2 / b_bias=0 / direct=3 / weightb=1 / open_gop=0 / weightp=2 / keyint=240 / keyint_min=23 / scenecut=40 / intra_refresh=0 / rc=2pass / mbtree=0 / bitrate=7624 / ratetol=1.0 / qcomp=0.60 / qpmin=0 / qpmax=69 / qpstep=4 / cplxblur=20.0 / qblur=0.5 / ip_ratio=1.40 / pb_ratio=1.30 / aq=1:0.80
Language                                 : English
Default                                  : Yes
Forced                                   : No

Audio #1
ID                                       : 2
Format                                   : AC-3
Format/Info                              : Audio Coding 3
Mode extension                           : CM (complete main)
Format settings, Endianness              : Big
Codec ID                                 : A_AC3
Duration                                 : 2h 4mn
Bit rate mode                            : Constant
Bit rate                                 : 640 Kbps
Channel(s)                               : 6 channels
Channel positions                        : Front: L C R, Side: L R, LFE
Sampling rate                            : 48.0 KHz
Bit depth                                : 16 bits
Compression mode                         : Lossy
Stream size                              : 570 MiB (7%)
Title                                    : Дубляж
Language                                 : Russian
Default                                  : Yes
Forced                                   : No

Audio #2
ID                                       : 3
Format                                   : AC-3
Format/Info                              : Audio Coding 3
Mode extension                           : CM (complete main)
Format settings, Endianness              : Big
Codec ID                                 : A_AC3
Duration                                 : 2h 4mn
Bit rate mode                            : Constant
Bit rate                                 : 640 Kbps
Channel(s)                               : 6 channels
Channel positions                        : Front: L C R, Side: L R, LFE
Sampling rate                            : 48.0 KHz
Bit depth                                : 16 bits
Compression mode                         : Lossy
Stream size                              : 570 MiB (7%)
Title                                    : Оригинал
Language                                 : English
Default                                  : No
Forced                                   : No

Text #1
ID                                       : 4
Format                                   : UTF-8
Codec ID                                 : S_TEXT/UTF8
Codec ID/Info                            : UTF-8 Plain Text
Language                                 : Russian
Default                                  : No
Forced                                   : No

Text #2
ID                                       : 5
Format                                   : UTF-8
Codec ID                                 : S_TEXT/UTF8
Codec ID/Info                            : UTF-8 Plain Text
Language                                 : English
Default                                  : No
Forced                                   : No

Menu
00:00:00.000                             : :Chapter 1
00:04:04.494                             : :Chapter 2
00:05:51.184                             : :Chapter 3
00:08:34.764                             : :Chapter 4
00:14:15.938                             : :Chapter 5
00:21:02.010                             : :Chapter 6
00:24:34.764                             : :Chapter 7
00:25:25.482                             : :Chapter 8
00:32:44.253                             : :Chapter 9
00:34:49.128                             : :Chapter 10
00:39:35.623                             : :Chapter 11
00:42:50.067                             : :Chapter 12
00:49:15.619                             : :Chapter 13
00:54:30.976                             : :Chapter 14
00:57:38.371                             : :Chapter 15
01:00:11.649                             : :Chapter 16
01:03:48.991                             : :Chapter 17
01:08:33.109                             : :Chapter 18
01:10:46.909                             : :Chapter 19
01:12:02.526                             : :Chapter 20
01:13:22.689                             : :Chapter 21
01:15:14.635                             : :Chapter 22
01:20:23.735                             : :Chapter 23
01:22:32.489                             : :Chapter 24
01:23:23.248                             : :Chapter 25
01:25:10.230                             : :Chapter 26
01:26:20.466                             : :Chapter 27
01:31:44.457                             : :Chapter 28
01:32:50.731                             : :Chapter 29
01:35:41.193                             : :Chapter 30
01:37:56.245                             : :Chapter 31
01:41:46.892                             : :Chapter 32
01:44:19.503                             : :Chapter 33
01:49:55.338                             : :Chapter 34
01:58:19.467                             : :Chapter 35
Скриншоты:

загрузка...
Правила, инструкции, FAQ!!!
Торрент  Добавлен [02 ноя 2014, 17:02] Скачать торрент
Скачать торрент
[ Размер 20.27 КБ / Просмотров 11 ]

Статус
Проверен 
 
Размер  7.76 ГБ
Приватный: Нет (DHT включён)
.torrent скачан  0
Как залить торрент? | Как скачать Torrent? | Как смотреть и слушать онлайн?  


     Отправить личное сообщение
   
Страница 1 из 1
Показать сообщения за:  Поле сортировки  
Начать новую тему Ответить на тему

   Похожие торренты   Автор   Ответы   Просмотры   Последнее сообщение 
В этой теме нет новых непрочитанных сообщений. Скачать торрент Проверен Карательный отряд / Force of Execution (2013) BDRip 1080p | P

в форуме 720p | 1080p, Размер: 7.23 ГБ, Здоровье: 0%

Anonymous

0
1|116

35
1

01 фев 2015, 21:48

Anonymous Перейти к последнему сообщению

В этой теме нет новых непрочитанных сообщений. Скачать торрент Проверен ТЕРРА-Детектив - Гурский Л. - Убить президента [1997, PDF/DjVu, RUS]

в форуме Детективы и Боевики, Размер: 27.93 МБ, Здоровье: 0%

Anonymous

0
0|0

6
0

08 сен 2016, 20:49

Anonymous Перейти к последнему сообщению

В этой теме нет новых непрочитанных сообщений. Скачать торрент Проверен Звёздные войны: Пробуждение силы / Star Wars: Episode VII - The Force Awakens (2015) BDRip 1080p | iTunes

в форуме 720p | 1080p, Размер: 17.56 ГБ, Здоровье: 100%

Гость

0
1220|550

274
3139

01 апр 2016, 20:17

Гость Перейти к последнему сообщению

В этой теме нет новых непрочитанных сообщений. Скачать торрент Проверен Благодетель / The Rainmaker (1997) BDRip 1080p

в форуме 720p | 1080p, Размер: 12.4 ГБ, Здоровье: 100%

Anonymous

0
17|5

22
112

05 янв 2015, 22:20

Anonymous Перейти к последнему сообщению

В этой теме нет новых непрочитанных сообщений. Скачать торрент Проверен Горбун / Le Bossu (1997) BDRip 1080p

в форуме 720p | 1080p, Размер: 15.78 ГБ, Здоровье: 69%

Anonymous

0
29|42

154
15

14 июн 2015, 22:25

Anonymous Перейти к последнему сообщению



Сейчас этот форум просматривают: нет зарегистрированных пользователей и гости: 1


Вы не можете начинать темы
Вы не можете отвечать на сообщения
Вы не можете редактировать свои сообщения
Вы не можете удалять свои сообщения
Вы не можете добавлять вложения

Перейти:  

!ВНИМАНИЕ!
 Ресурс не предоставляет электронные версии произведений, а занимается лишь коллекционированием и каталогизацией ссылок, присылаемых и публикуемых на форуме нашими читателями. Если вы являетесь правообладателем какого-либо представленного материала и не желаете чтобы ссылка на него находилась в нашем каталоге, свяжитесь с нами и мы незамедлительно удалим её. Файлы для обмена на трекере предоставлены пользователями сайта, и администрация не несёт ответственности за их содержание. Просьба не заливать файлы, защищенные авторскими правами, а также файлы нелегального содержания!