На всех торрентах на трекере установлена скидка на скачивание в размере 100 процентов(а).
 Возможность скачивания торрента НЕ зависит от ограничений при низком ратио, низком аплоаде, требуемом ратио или требуемом аплоаде.


Начать новую тему Ответить на тему
Статистика раздачи
Размер: 4.78 ГБ | Добавлен: 01 ноя 2014, 13:05 | Скачали: 291
Сидеров: 24  [0 байт/сек]    Личеров: 4  [0 байт/сек]
Пред. тема | След. тема 

Автор
Сообщение

СообщениеДобавлено: 01 ноя 2014, 13:05 

Название: Люсия де Берк
Оригинальное название: Lucia de B.
Год выхода: 2014
Жанр: Драма
Режиссер: Паула ван дер Уст
В ролях: Барри Атсма, Аманда Оомс, Марван Кензари, Федя ван Хюэт, Салли Хармсен, Аннет Мальэрб, Исис Каболе, Марсель Мустерс, Рональд Топ, Ариан Шлутер

О фильме:
Люсия Де Берк — молодая женщина, которой пришлось столкнуться с несправедливостью судебной системы. За много лет работы в больнице девушка приобрела огромный опыт ухаживания за тяжелобольными пациентами, но во время ее очередного дежурства, в клинике умирает новорожденный ребенок. По словам коллег это уже не первый смертельный случай, произошедший за все время работы Люси в больнице. Полиция начинает вести расследование, а главной обвиняемой в этом деле становится Де Берк. Вскоре дело Люси доходит до суда, а журналисты начинают называет ее «Ангелом Смерти». Огромное количество людей начинают ненавидеть девушку, считая ее хладнокровной убийцей, даже не смотря на отсутствие прямых доказательств ее вины...





Выпущено: Нидерланды, Швеция / Filmkreatörerna Prah och Björk , Living Stone, Lucil Film, NCRV Television, Rinkel Film
Продолжительность: 01:36:47
Перевод: Любительское (одноголосое) [Lord32x]


Формат: MKV
Качество: BDRip 720p
Видео: MPEG-4 AVC, 6000 Кбит/с, 1280x480
Аудио: Русские (AC3, 6 ch, 448 Кбит/с) голландский (AC3, 6 ch, 640 Кбит/с)
Субтитры: Русские, английские

Семпл

General
Lucia.de.B.2014.Blu.Ray.720p.CINEMANIA.mkv
Format : Matroska
Format version : Version 4 / Version 2
File size : 4.78 GiB
Duration : 1h 36mn
Overall bit rate : 7 076 Kbps
Movie name : Release Group CINEMANIA
Encoded date : UTC 2014-10-31 20:52:44
Writing application : mkvmerge v7.3.0 ('Nouages') 64bit built on Oct 22 2014 18:53:34
Writing library : libebml v1.3.0 + libmatroska v1.4.1

Video
ID : 1
Format : AVC
Format/Info : Advanced Video Codec
Format profile : High@L4.1
Format settings, CABAC : Yes
Format settings, ReFrames : 13 frames
Codec ID : V_MPEG4/ISO/AVC
Duration : 1h 36mn
Bit rate : 6 000 Kbps
Width : 1 280 pixels
Height : 480 pixels
Display aspect ratio : 2.667
Frame rate mode : Constant
Frame rate : 23.976 fps
Color space : YUV
Chroma subsampling : 4:2:0
Bit depth : 8 bits
Scan type : Progressive
Bits/(Pixel*Frame) : 0.407
Stream size : 3.95 GiB (83%)
Title : Release Group CINEMANIA
Writing library : x264 core 142 r2479kMod dd79a61
Encoding settings : cabac=1 / ref=13 / deblock=1:-3:-3 / analyse=0x3:0x133 / me=umh / subme=10 / psy=1 / fade_compensate=0.00 / psy_rd=1.08:0.00 / mixed_ref=1 / me_range=24 / chroma_me=1 / trellis=2 / 8x8dct=1 / cqm=0 / deadzone=21,11 / fast_pskip=0 / chroma_qp_offset=-2 / threads=6 / lookahead_threads=1 / sliced_threads=0 / nr=0 / decimate=0 / interlaced=0 / bluray_compat=0 / constrained_intra=0 / fgo=0 / bframes=11 / b_pyramid=2 / b_adapt=2 / b_bias=0 / direct=3 / weightb=1 / open_gop=0 / weightp=2 / keyint=250 / keyint_min=23 / scenecut=40 / intra_refresh=0 / rc_lookahead=0 / rc=2pass / mbtree=0 / bitrate=6000 / ratetol=1.0 / qcomp=0.70 / qpmin=0 / qpmax=69 / qpstep=4 / cplxblur=20.0 / qblur=0.5 / vbv_maxrate=38000 / vbv_bufsize=30000 / nal_hrd=none / filler=0 / ip_ratio=1.40 / pb_ratio=1.30 / aq=1:0.68 / zones=131733,139249
Language : English
Default : Yes
Forced : No
Color primaries : BT.709
Transfer characteristics : BT.709
Matrix coefficients : BT.709

Audio #1
ID : 2
Format : AC-3
Format/Info : Audio Coding 3
Mode extension : CM (complete main)
Format settings, Endianness : Big
Codec ID : A_AC3
Duration : 1h 36mn
Bit rate mode : Constant
Bit rate : 448 Kbps
Channel(s) : 6 channels
Channel positions : Front: L C R, Side: L R, LFE
Sampling rate : 48.0 KHz
Bit depth : 16 bits
Compression mode : Lossy
Stream size : 310 MiB (6%)
Title : Lord32x
Language : Russian
Default : Yes
Forced : Yes

Audio #2
ID : 3
Format : AC-3
Format/Info : Audio Coding 3
Mode extension : CM (complete main)
Format settings, Endianness : Big
Codec ID : A_AC3
Duration : 1h 36mn
Bit rate mode : Constant
Bit rate : 640 Kbps
Channel(s) : 6 channels
Channel positions : Front: L C R, Side: L R, LFE
Sampling rate : 48.0 KHz
Bit depth : 16 bits
Compression mode : Lossy
Stream size : 443 MiB (9%)
Language : Dutch
Default : No
Forced : No

Text #2
ID : 6
Format : UTF-8
Codec ID : S_TEXT/UTF8
Codec ID/Info : UTF-8 Plain Text
Title : Janetta
Language : Russian
Default : No
Forced : No

Text #3
ID : 5
Format : UTF-8
Codec ID : S_TEXT/UTF8
Codec ID/Info : UTF-8 Plain Text
Language : English
Default : No
Forced : No

Menu
00:00:00.000 : en:00:00:00.000
00:06:57.417 : en:00:06:57.417
00:13:20.049 : en:00:13:20.049
00:23:58.437 : en:00:23:58.437
00:31:47.322 : en:00:31:47.322
00:36:19.677 : en:00:36:19.677
00:45:39.153 : en:00:45:39.153
00:52:27.144 : en:00:52:27.144
00:59:07.544 : en:00:59:07.544
01:06:31.946 : en:01:06:31.946
01:14:58.911 : en:01:14:58.911
01:21:06.028 : en:01:21:06.028
01:31:57.512 : en:01:31:57.512


Релиз от:
загрузка...
Правила, инструкции, FAQ!!!
Торрент  Добавлен [01 ноя 2014, 13:05] Скачать торрент
Скачать торрент
[ Размер 12.58 КБ / Просмотров 13 ]

Статус
Проверен 
 
Размер  4.78 ГБ
Приватный: Нет (DHT включён)
.torrent скачан  291
Как залить торрент? | Как скачать Torrent? | Как смотреть и слушать онлайн?  


     Отправить личное сообщение
   
Страница 1 из 1
Показать сообщения за:  Поле сортировки  
Начать новую тему Ответить на тему

   Похожие торренты   Автор   Ответы   Просмотры   Последнее сообщение 
В этой теме нет новых непрочитанных сообщений. Скачать торрент Проверен Люсия де Берк / Lucia de B. (2014) BDRip 1080p | L1

в форуме 720p | 1080p, Размер: 7.14 ГБ, Здоровье: 100%

Anonymous

0
34|4

21
231

01 ноя 2014, 13:03

Anonymous Перейти к последнему сообщению

В этой теме нет новых непрочитанных сообщений. Скачать торрент Люсия и секс / Lucía y el sexo (2001) BDRip 720p

в форуме 720p | 1080p, Размер: 4.76 ГБ, Здоровье: 100%

Anonymous

0
35|2

32
818

26 мар 2014, 22:10

Anonymous Перейти к последнему сообщению

В этой теме нет новых непрочитанных сообщений. Скачать торрент Проверен [iPhone] Люсия и секс / Lucia y el sexo (Хулио Медем / Julio Medem) [2001, Драма, DVDRip, 480x208]

в форуме Фильмы для iPod, iPhone, iPad, Размер: 558.81 МБ, Здоровье: 100%

Anonymous

0
7|1

30
1

18 май 2015, 10:55

Anonymous Перейти к последнему сообщению

В этой теме нет новых непрочитанных сообщений. Скачать торрент Проверен Сали Ан Берк/Салли Энн Берк - 1300 коктейла в Наръчник на Нюйоркския барман./1300 коктейлей в справочнике Нью-Йоркского бармена. [2002, PDF, BGR]

в форуме Кулинария, Размер: 88.52 МБ, Здоровье: 0%

Anonymous

0
0|0

5
0

19 окт 2016, 20:41

Anonymous Перейти к последнему сообщению

В этой теме нет новых непрочитанных сообщений. Скачать торрент Проверен Алафер Берк | Никому не говори (2014) [FB2]

в форуме Детективы и Боевики, Размер: 1.47 МБ, Здоровье: 100%

Anonymous

0
13|1

35
0

20 сен 2014, 22:13

Anonymous Перейти к последнему сообщению



Сейчас этот форум просматривают: нет зарегистрированных пользователей и гости: 1


Вы не можете начинать темы
Вы не можете отвечать на сообщения
Вы не можете редактировать свои сообщения
Вы не можете удалять свои сообщения
Вы не можете добавлять вложения

Перейти:  

!ВНИМАНИЕ!
 Ресурс не предоставляет электронные версии произведений, а занимается лишь коллекционированием и каталогизацией ссылок, присылаемых и публикуемых на форуме нашими читателями. Если вы являетесь правообладателем какого-либо представленного материала и не желаете чтобы ссылка на него находилась в нашем каталоге, свяжитесь с нами и мы незамедлительно удалим её. Файлы для обмена на трекере предоставлены пользователями сайта, и администрация не несёт ответственности за их содержание. Просьба не заливать файлы, защищенные авторскими правами, а также файлы нелегального содержания!