На всех торрентах на трекере установлена скидка на скачивание в размере 100 процентов(а).
 Возможность скачивания торрента НЕ зависит от ограничений при низком ратио, низком аплоаде, требуемом ратио или требуемом аплоаде.


Начать новую тему Ответить на тему
Статистика раздачи
Размер: 9.47 ГБ | Добавлен: 31 окт 2014, 20:16 | Скачали: 62
Сидеров: 31  [0 байт/сек]    Личеров: 34  [0 байт/сек]
Пред. тема | След. тема 

Автор
Сообщение

СообщениеДобавлено: 31 окт 2014, 20:16 

Название: Африканец
Оригинальное название: L'Africain
Год выпуска: 1983
Жанр: Приключения

Режиссер: Филипп Де Брока

В ролях: Катрин Денёв, Филипп Нуаре, Жак Франсуа, Жан-Фрасуа Бальме

Описание: Замечательный приключенческий фильм с истинно французским юмором, снят в экзотических, живописнейших местах Африки, куда прилетает героиня фильма , чтобы изучить возможность строительства отеля для туристов. Там она встречает своего мужа , летчика, охраняющего заповедник от браконьеров. Они расстались несколько лет назад, но так и не смогли забыть друг друга. Он делает все возможное, чтобы воспрепятствовать уничтожению этого нетронутого уголка природы. Нешуточное столкновение интересов, забавные приключения и настоящая опасность возрождают старую любовь с новой силой!



Страна: Франция
Студия: Renn Productions
Продолжительность: 01:40:50
Перевод: Профессиональный (полное дублирование)
Перевод: Профессиональный (многоголосый, закадровый)


Качество: BDRip 1080p
Формат: MKV
Видео кодек: H264
Аудио кодек: AC3
Видео: MPEG4 Video (H264), 1920x816, 23.976fps, 12.0 Mbps
Аудио #1: Русский - Dolby AC3, 48000 Hz, 6ch, 384 kbps - Дубляж
Аудио #2: Русский - Dolby AC3, 48000 Hz, 6ch, 384 kbps - Профессиональный многоголосый (R5)
Аудио #3: Украинский - Dolby AC3, 48000 Hz, 2ch, 192 kbps - Профессиональный многоголосый (1+1)
Аудио #4: Французский - Dolby AC3, 48000 Hz, 2ch, 448 kbps
Субтитры: Русские, английские, французские (PGS)

Сэмпл
General
Unique ID : 172439796402625700275817838947202162746 (0x81BAB25E2E4B4E08BE7669496A62E03A)
Complete name : F:Torrent 21983.Африканец.renta23.mkv
Format : Matroska
Format version : Version 4 / Version 2
File size : 9.47 GiB
Duration : 1h 40mn
Overall bit rate : 13.4 Mbps
Encoded date : UTC 2014-10-31 00:01:04
Writing application : mkvmerge v7.1.0 ('Good Love') 32bit built on Jul 27 2014 12:59:18
Writing library : libebml v1.3.0 + libmatroska v1.4.1
DURATION : 01:40:22.475000000
NUMBER_OF_FRAMES : 2016
NUMBER_OF_BYTES : 5356441
_STATISTICS_WRITING_APP : mkvmerge v7.1.0 ('Good Love') 32bit built on Jul 27 2014 12:59:18
_STATISTICS_WRITING_DATE_UTC : 2014-10-31 00:01:04
_STATISTICS_TAGS : BPS DURATION NUMBER_OF_FRAMES NUMBER_OF_BYTES

Video
ID : 1
Format : AVC
Format/Info : Advanced Video Codec
Format profile : High@L4.1
Format settings, CABAC : Yes
Format settings, ReFrames : 3 frames
Codec ID : V_MPEG4/ISO/AVC
Duration : 1h 40mn
Bit rate : 12.0 Mbps
Width : 1 920 pixels
Height : 816 pixels
Display aspect ratio : 2.35:1
Frame rate mode : Constant
Frame rate : 23.976 fps
Color space : YUV
Chroma subsampling : 4:2:0
Bit depth : 8 bits
Scan type : Progressive
Bits/(Pixel*Frame) : 0.319
Stream size : 8.29 GiB (88%)
Title : Африканец / L'Africain (1983) / renta23
Writing library : x264 core 125 r2208 d9d2288
Encoding settings : cabac=1 / ref=4 / deblock=1:-1:-1 / analyse=0x3:0x133 / me=umh / subme=11 / psy=1 / psy_rd=1.15:0.25 / mixed_ref=1 / me_range=24 / chroma_me=1 / trellis=2 / 8x8dct=1 / cqm=0 / deadzone=21,11 / fast_pskip=0 / chroma_qp_offset=-4 / threads=12 / lookahead_threads=2 / sliced_threads=0 / nr=0 / decimate=1 / interlaced=0 / bluray_compat=0 / constrained_intra=0 / bframes=6 / b_pyramid=1 / b_adapt=2 / b_bias=0 / direct=3 / weightb=1 / open_gop=0 / weightp=2 / keyint=250 / keyint_min=23 / scenecut=40 / intra_refresh=0 / rc_lookahead=50 / rc=2pass / mbtree=1 / bitrate=12000 / ratetol=1.0 / qcomp=0.60 / qpmin=0 / qpmax=69 / qpstep=4 / cplxblur=20.0 / qblur=0.5 / ip_ratio=1.40 / aq=1:1.00
Language : French
Default : Yes
Forced : No

Audio #1
ID : 2
Format : AC-3
Format/Info : Audio Coding 3
Mode extension : CM (complete main)
Format settings, Endianness : Big
Codec ID : A_AC3
Duration : 1h 40mn
Bit rate mode : Constant
Bit rate : 384 Kbps
Channel(s) : 6 channels
Channel positions : Front: L C R, Side: L R, LFE
Sampling rate : 48.0 KHz
Bit depth : 16 bits
Compression mode : Lossy
Stream size : 277 MiB (3%)
Title : Дубляж
Language : Russian
Default : Yes
Forced : No

Audio #2
ID : 3
Format : AC-3
Format/Info : Audio Coding 3
Mode extension : CM (complete main)
Format settings, Endianness : Big
Codec ID : A_AC3
Duration : 1h 40mn
Bit rate mode : Constant
Bit rate : 384 Kbps
Channel(s) : 6 channels
Channel positions : Front: L C R, Side: L R, LFE
Sampling rate : 48.0 KHz
Bit depth : 16 bits
Compression mode : Lossy
Stream size : 277 MiB (3%)
Title : Многоголосый
Language : Russian
Default : No
Forced : No

Audio #3
ID : 4
Format : AC-3
Format/Info : Audio Coding 3
Mode extension : CM (complete main)
Format settings, Endianness : Big
Codec ID : A_AC3
Duration : 1h 40mn
Bit rate mode : Constant
Bit rate : 192 Kbps
Channel(s) : 2 channels
Channel positions : Front: L R
Sampling rate : 48.0 KHz
Bit depth : 16 bits
Compression mode : Lossy
Stream size : 138 MiB (1%)
Language : Ukrainian
Default : No
Forced : No

Audio #4
ID : 5
Format : AC-3
Format/Info : Audio Coding 3
Mode extension : CM (complete main)
Format settings, Endianness : Big
Codec ID : A_AC3
Duration : 1h 40mn
Bit rate mode : Constant
Bit rate : 448 Kbps
Channel(s) : 2 channels
Channel positions : Front: L R
Sampling rate : 48.0 KHz
Bit depth : 16 bits
Compression mode : Lossy
Stream size : 323 MiB (3%)
Language : French
Default : No
Forced : No

Text #1
ID : 6
Format : PGS
Muxing mode : zlib
Codec ID : S_HDMV/PGS
Codec ID/Info : The same subtitle format used on BDs/HD-DVDs
Language : Russian
Default : Yes
Forced : No

Text #2
ID : 7
Format : PGS
Muxing mode : zlib
Codec ID : S_HDMV/PGS
Codec ID/Info : The same subtitle format used on BDs/HD-DVDs
Language : English
Default : No
Forced : No

Text #3
ID : 8
Format : PGS
Muxing mode : zlib
Codec ID : S_HDMV/PGS
Codec ID/Info : The same subtitle format used on BDs/HD-DVDs
Language : French
Default : No
Forced : No

Menu
00:00:00.000 : en:Chapter 01
00:06:52.370 : en:Chapter 02
00:11:59.510 : en:Chapter 03
00:15:36.226 : en:Chapter 04
00:21:45.429 : en:Chapter 05
00:27:07.959 : en:Chapter 06
00:37:22.156 : en:Chapter 07
00:46:47.221 : en:Chapter 08
00:56:02.192 : en:Chapter 09
01:03:54.330 : en:Chapter 10
01:12:19.043 : en:Chapter 11
01:16:59.197 : en:Chapter 12
01:20:51.805 : en:Chapter 13
01:28:12.912 : en:Chapter 14
01:35:23.759 : en:Chapter 15
01:38:56.847 : en:Chapter 16




загрузка...
Правила, инструкции, FAQ!!!
Торрент  Добавлен [31 окт 2014, 20:16] Скачать торрент
Скачать торрент
[ Размер 47.83 КБ / Просмотров 12 ]

Статус
Проверен 
 
Размер  9.47 ГБ
Приватный: Нет (DHT включён)
.torrent скачан  62
Как залить торрент? | Как скачать Torrent? | Как смотреть и слушать онлайн?  


     Отправить личное сообщение
   
Страница 1 из 1
Показать сообщения за:  Поле сортировки  
Начать новую тему Ответить на тему

   Похожие торренты   Автор   Ответы   Просмотры   Последнее сообщение 
В этой теме нет новых непрочитанных сообщений. Скачать торрент Африканец / L'africain (1983) DVDRip

в форуме Комедии, Размер: 1.46 ГБ, Здоровье: 100%

Anonymous

0
21|5

47
50

21 янв 2014, 21:09

Anonymous Перейти к последнему сообщению

В этой теме нет новых непрочитанных сообщений. Скачать торрент Проверен Проект А - Дилогия / Project A Collection (1983-1987) BDRip 1080p | P2, P1, A

в форуме 720p | 1080p, Размер: 20.22 ГБ, Здоровье: 100%

Anonymous

0
14|10

328
55

15 ноя 2015, 23:54

Anonymous Перейти к последнему сообщению

В этой теме нет новых непрочитанных сообщений. Скачать торрент Проверен Чебурашка и крокодил Гена. Сборник мультфильмов (1969-1983) [1080p] BDRip

в форуме Отечественные мультфильмы (HD Video), Размер: 4.4 ГБ, Здоровье: 100%

Гость

0
1|0

219
2

29 дек 2014, 23:40

Гость Перейти к последнему сообщению

В этой теме нет новых непрочитанных сообщений. Скачать торрент Проверен Одинокий волк МакКуэйд / Lone Wolf McQuade (1983) BDRip 1080p | P, A

в форуме 720p | 1080p, Размер: 12.06 ГБ, Здоровье: 100%

Гость

0
4|0

87
2

10 апр 2016, 23:23

Гость Перейти к последнему сообщению

В этой теме нет новых непрочитанных сообщений. Скачать торрент Проверен Уильям Контон / Р.Сариф Исмон - Африканец / Роковое предсказание [1987, PDF, RUS]

в форуме Зарубежная литература (XX и XXI век), Размер: 8.78 МБ, Здоровье: 100%

Anonymous

0
1|0

0
0

08 сен 2016, 18:55

Anonymous Перейти к последнему сообщению



Сейчас этот форум просматривают: нет зарегистрированных пользователей и гости: 2


Вы не можете начинать темы
Вы не можете отвечать на сообщения
Вы не можете редактировать свои сообщения
Вы не можете удалять свои сообщения
Вы не можете добавлять вложения

Перейти:  

!ВНИМАНИЕ!
 Ресурс не предоставляет электронные версии произведений, а занимается лишь коллекционированием и каталогизацией ссылок, присылаемых и публикуемых на форуме нашими читателями. Если вы являетесь правообладателем какого-либо представленного материала и не желаете чтобы ссылка на него находилась в нашем каталоге, свяжитесь с нами и мы незамедлительно удалим её. Файлы для обмена на трекере предоставлены пользователями сайта, и администрация не несёт ответственности за их содержание. Просьба не заливать файлы, защищенные авторскими правами, а также файлы нелегального содержания!