На всех торрентах на трекере установлена скидка на скачивание в размере 100 процентов(а).
 Возможность скачивания торрента НЕ зависит от ограничений при низком ратио, низком аплоаде, требуемом ратио или требуемом аплоаде.


Начать новую тему Ответить на тему
Статистика раздачи
Размер: 5.75 ГБ | Добавлен: 31 окт 2014, 19:38 | Скачали: 14
Сидеров: 12  [0 байт/сек]    Личеров: 54  [0 байт/сек]
Пред. тема | След. тема 

Автор
Сообщение

СообщениеДобавлено: 31 окт 2014, 19:38 

Русское название: Хозяева ночи
Оригинальное название: We Own the Night
Год выпуска: 2007
Жанр: триллер, драма, криминал
Выпущено: США
Режиссер: Джеймс Грэй
В ролях: Хоакин Феникс , Марк Уолберг , Ева Мендес , Роберт Дювалл , Дэнни Хоч , Алекс Видов , Олег Тактаров , Доминик Колон , Джо Д’Онофрио , Елена Соловей , Мони Мошонов , Мэгги Кили

Перевод: Дублированный - [Лицензия]

Сюжет фильма:
80-е годы 20-го столетия. Нью-Йорк захлестнула волна преступлений. Боссы наркомафии составляют список сотрудников местного полицейского департамента, подлежащих уничтожению. Бобби Грин - успешный управляющий популярного ночного клуба.
Его хозяин тесно связан с гангстерами, поэтому Бобби вынужден скрывать, что его родственники служат в полиции. Случайно он узнает, что первыми номерами в «расстрельном» списке идут имена его отца и брата. Чью сторону он займет в предстоящей схватке криминала и закона?



Качество: BDRip 720p (исходник Blu-ray)
Формат: AVC (библиотека кодирования x.264)
Контейнер (Расширение): MKV
Видео: 1280x694 (16:9), 5915 Кбит/сек, 23,976 кадр/сек, 0,278 Бит/[Пиксели*Кадры]
Аудио №1: русский / AC3 / 5.1 / 48 kHz / 448 kbps / 16 bit |Дублированный|
Аудио №2: английский / AC3 / 5.1 / 48 kHz / 640 kbps / 16 bit
Навигация по главам(Чаптеры): есть
Продолжительность: 01:57:33

[center]Автор рипа:
Format : Matroska
Format version : Version 2
File size : 5.75 GiB
Duration : 1h 57mn
Overall bit rate : 7 000 Kbps
Movie name : Hozjaeva nochi.(2007).BDRip.720p.[denis100]
Encoded date : UTC 2014-10-31 13:23:05
Writing application : mkvmerge v5.8.0 ('No Sleep / Pillow') built on Sep 2 2012 15:37:04
Writing library : libebml v1.2.3 + libmatroska v1.3.0

Video
ID : 1
Format : AVC
Format/Info : Advanced Video Codec
Format profile : High@L4.1
Format settings, CABAC : Yes
Format settings, ReFrames : 9 frames
Codec ID : V_MPEG4/ISO/AVC
Duration : 1h 57mn
Bit rate : 5 915 Kbps
Width : 1 280 pixels
Height : 694 pixels
Display aspect ratio : 16:9
Frame rate : 23.976 fps
Color space : YUV
Chroma subsampling : 4:2:0
Bit depth : 8 bits
Scan type : Progressive
Bits/(Pixel*Frame) : 0.278
Stream size : 4.74 GiB (82%)
Title : Hozjaeva nochi.(2007).BDRip.720p.[denis100]
Writing library : x264 core 142 r2479 dd79a61
Encoding settings : cabac=1 / ref=9 / deblock=1:-3:-3 / analyse=0x3:0x133 / me=umh / subme=11 / psy=1 / psy_rd=1.00:0.10 / mixed_ref=1 / me_range=32 / chroma_me=1 / trellis=2 / 8x8dct=1 / cqm=0 / deadzone=21,11 / fast_pskip=0 / chroma_qp_offset=-3 / threads=6 / lookahead_threads=1 / sliced_threads=0 / nr=0 / decimate=1 / interlaced=0 / bluray_compat=0 / constrained_intra=0 / bframes=5 / b_pyramid=2 / b_adapt=2 / b_bias=0 / direct=3 / weightb=1 / open_gop=0 / weightp=2 / keyint=240 / keyint_min=23 / scenecut=40 / intra_refresh=0 / rc=2pass / mbtree=0 / bitrate=5915 / ratetol=1.0 / qcomp=0.60 / qpmin=0 / qpmax=69 / qpstep=4 / cplxblur=20.0 / qblur=0.5 / ip_ratio=1.40 / pb_ratio=1.30 / aq=1:0.90
Language : English
Default : Yes
Forced : No

Audio #1
ID : 2
Format : AC-3
Format/Info : Audio Coding 3
Mode extension : CM (complete main)
Codec ID : A_AC3
Duration : 1h 57mn
Bit rate mode : Constant
Bit rate : 448 Kbps
Channel(s) : 6 channels
Channel positions : Front: L C R, Side: L R, LFE
Sampling rate : 48.0 KHz
Bit depth : 16 bits
Compression mode : Lossy
Stream size : 377 MiB (6%)
Title : Дублированный
Language : Russian
Default : Yes
Forced : No

Audio #2
ID : 3
Format : AC-3
Format/Info : Audio Coding 3
Mode extension : CM (complete main)
Codec ID : A_AC3
Duration : 1h 57mn
Bit rate mode : Constant
Bit rate : 640 Kbps
Channel(s) : 6 channels
Channel positions : Front: L C R, Side: L R, LFE
Sampling rate : 48.0 KHz
Bit depth : 16 bits
Compression mode : Lossy
Stream size : 538 MiB (9%)
Title : english
Language : English
Default : No
Forced : No

Menu
00:00:00.000 : en:Chapter 01
00:07:16.310 : en:Chapter 02
00:15:57.373 : en:Chapter 03
00:21:01.385 : en:Chapter 04
00:24:44.232 : en:Chapter 05
00:28:25.036 : en:Chapter 06
00:34:03.958 : en:Chapter 07
00:40:32.430 : en:Chapter 08
00:48:39.416 : en:Chapter 09
00:56:02.484 : en:Chapter 10
01:05:02.899 : en:Chapter 11
01:12:13.871 : en:Chapter 12
01:21:46.359 : en:Chapter 13
01:28:11.953 : en:Chapter 14
01:36:11.807 : en:Chapter 15
01:43:23.780 : en:Chapter 16
x264 [info]: frame I:1218 Avg QP:13.52 size:137983
x264 [info]: frame P:38581 Avg QP:15.84 size: 53867
x264 [info]: frame B:129305 Avg QP:18.05 size: 22921
загрузка...
Правила, инструкции, FAQ!!!
Торрент  Добавлен [31 окт 2014, 19:38] Скачать торрент
Скачать торрент
[ Размер 29.26 КБ / Просмотров 13 ]

Статус
Проверен 
 
Размер  5.75 ГБ
Приватный: Нет (DHT включён)
.torrent скачан  14
Как залить торрент? | Как скачать Torrent? | Как смотреть и слушать онлайн?  


     Отправить личное сообщение
   
Страница 1 из 1
Показать сообщения за:  Поле сортировки  
Начать новую тему Ответить на тему

   Похожие торренты   Автор   Ответы   Просмотры   Последнее сообщение 
В этой теме нет новых непрочитанных сообщений. Скачать торрент Проверен Хозяева ночи / We Own the Night (2007) BDRip 1080р | D

в форуме 720p | 1080p, Размер: 9.52 ГБ, Здоровье: 60%

Anonymous

0
14|23

37
22

31 окт 2014, 19:40

Anonymous Перейти к последнему сообщению

В этой теме нет новых непрочитанных сообщений. Скачать торрент 30 дней ночи / 30 Days of Night (Дэвид Слэйд / David Slade) [2007, ужасы, триллер, BDRip] Dub

в форуме Ужасы, Размер: 1.46 ГБ, Здоровье: 0%

Anonymous

0
0|0

53
0

16 фев 2014, 13:09

Anonymous Перейти к последнему сообщению

В этой теме нет новых непрочитанных сообщений. Скачать торрент Проверен Секс на две ночи / Two Night Stand (2014) WEB-DL 720p | P

в форуме 720p | 1080p, Размер: 2.72 ГБ, Здоровье: 100%

Anonymous

0
119|6

42
5829

10 дек 2014, 12:43

Anonymous Перейти к последнему сообщению

В этой теме нет новых непрочитанных сообщений. Скачать торрент Проверен David Gilmour - Remember That Night - 2007 [720p.DTS.x264] [2007, Rock, BDRip]

в форуме Концерты (HD-Video), Размер: 10.98 ГБ, Здоровье: 100%

Anonymous

0
31|7

64
0

23 окт 2016, 19:56

Anonymous Перейти к последнему сообщению

В этой теме нет новых непрочитанных сообщений. Скачать торрент Проверен Секс на две ночи / Two Night Stand (2014) BDRip [1080p]

в форуме 720p | 1080p, Размер: 6.82 ГБ, Здоровье: 100%

Гость

0
192|9

57
0

26 янв 2015, 00:42

Гость Перейти к последнему сообщению



Сейчас этот форум просматривают: нет зарегистрированных пользователей и гости: 2


Вы не можете начинать темы
Вы не можете отвечать на сообщения
Вы не можете редактировать свои сообщения
Вы не можете удалять свои сообщения
Вы не можете добавлять вложения

Перейти:  

!ВНИМАНИЕ!
 Ресурс не предоставляет электронные версии произведений, а занимается лишь коллекционированием и каталогизацией ссылок, присылаемых и публикуемых на форуме нашими читателями. Если вы являетесь правообладателем какого-либо представленного материала и не желаете чтобы ссылка на него находилась в нашем каталоге, свяжитесь с нами и мы незамедлительно удалим её. Файлы для обмена на трекере предоставлены пользователями сайта, и администрация не несёт ответственности за их содержание. Просьба не заливать файлы, защищенные авторскими правами, а также файлы нелегального содержания!