На всех торрентах на трекере установлена скидка на скачивание в размере 100 процентов(а).
 Возможность скачивания торрента НЕ зависит от ограничений при низком ратио, низком аплоаде, требуемом ратио или требуемом аплоаде.


Начать новую тему Ответить на тему
Статистика раздачи
Размер: 11.38 ГБ | Добавлен: 30 окт 2014, 19:12 | Скачали: 77
Сидеров: 30  [0 байт/сек]    Личеров: 22  [0 байт/сек]
Пред. тема | След. тема 

Автор
Сообщение

СообщениеДобавлено: 30 окт 2014, 19:12 

Название: Отрочество
Оригинальное название: Boyhood
Год выхода: 2014
Жанр: Драма
Режиссер: Ричард Линклейтер
В ролях: Эллар Колтрейн, Патриция Аркетт, Итэн Хоук, Элайджа Смит, Лорелей Линклэйтер, Стивен Честер Принц, Бонни Кросс, Либби Виллари, Марко Перелья, Джэми Ховард

О фильме:
Многолетний проект позволит проследить развитие реального человека с момента рождения. Уникальный шанс увидеть год за годом взросление ребенка, жизнь его родителей и изменения окружающего мира в целом.





Выпущено: США / Detour Filmproduction, IFC Productions
Продолжительность: 02:45:38
Перевод: Любительское (одноголосое) [Lord32x]


Формат: MKV
Качество: BDRip 1080p
Видео: MPEG-4 AVC, 8108 Кбит/с, 1920x1040
Аудио: Русский (AC3, 2 ch, 224 Кбит/с), английский (DTS, 6 ch, 1510 Кбит/с)
Субтитры: Русские, английские

Семпл

Общее
Уникальный идентификатор : 251476885902426229281738464838423644771 (0xBD30AFBDAEB0C732A6FA1B2D213F8A63)
Полное имя : F:Раздача HDBoyhood.2014.Blu.Ray.1080p.CINEMANIA.mkv
Формат : Matroska
Версия формата : Version 4 / Version 2
Размер файла : 11,4 Гбайт
Продолжительность : 2 ч. 45 м.
Общий поток : 9838 Кбит/сек
Название фильма : Release Group CINEMANIA
Дата кодирования : UTC 2014-10-30 08:54:35
Программа кодирования : mkvmerge v7.3.0 ('Nouages') 64bit built on Oct 22 2014 18:53:34
Библиотека кодирования : libebml v1.3.0 + libmatroska v1.4.1

Видео
Идентификатор : 1
Формат : AVC
Формат/Информация : Advanced Video Codec
Профиль формата : High@L4.1
Параметр CABAC формата : Да
Параметр ReFrames формата : 4 кадра
Идентификатор кодека : V_MPEG4/ISO/AVC
Продолжительность : 2 ч. 45 м.
Битрейт : 8108 Кбит/сек
Ширина : 1920 пикселей
Высота : 1040 пикселей
Соотношение сторон : 1,85:1
Режим частоты кадров : Постоянный
Частота кадров : 23,976 кадра/сек
Цветовое пространство : YUV
Субдискретизация насыщенности : 4:2:0
Битовая глубина : 8 бит
Тип развёртки : Прогрессивная
Бит/(Пиксели*Кадры) : 0.169
Размер потока : 9,15 Гбайт (80%)
Заголовок : Release Group CINEMANIA
Библиотека кодирования : x264 core 142 r2479 dd79a61
Настройки программы : cabac=1 / ref=4 / deblock=1:-1:-1 / analyse=0x3:0x133 / me=umh / subme=7 / psy=1 / psy_rd=1.00:0.15 / mixed_ref=1 / me_range=16 / chroma_me=1 / trellis=1 / 8x8dct=1 / cqm=0 / deadzone=21,11 / fast_pskip=0 / chroma_qp_offset=-2 / threads=12 / lookahead_threads=2 / sliced_threads=0 / nr=0 / decimate=1 / interlaced=0 / bluray_compat=0 / constrained_intra=0 / bframes=3 / b_pyramid=2 / b_adapt=1 / b_bias=0 / direct=1 / weightb=1 / open_gop=0 / weightp=2 / keyint=240 / keyint_min=23 / scenecut=40 / intra_refresh=0 / rc_lookahead=40 / rc=2pass / mbtree=1 / bitrate=8108 / ratetol=1.0 / qcomp=0.60 / qpmin=10 / qpmax=69 / qpstep=4 / cplxblur=20.0 / qblur=0.5 / ip_ratio=1.40 / aq=1:1.00
Язык : English
Default : Да
Forced : Нет

Аудио #1
Идентификатор : 2
Формат : AC-3
Формат/Информация : Audio Coding 3
Расширение режима : CM (complete main)
Параметр Endianness формата : Big
Идентификатор кодека : A_AC3
Продолжительность : 2 ч. 45 м.
Вид битрейта : Постоянный
Битрейт : 224 Кбит/сек
Каналы : 2 канала
Расположение каналов : Front: L R
Частота : 48,0 КГц
Битовая глубина : 16 бит
Метод сжатия : С потерями
Размер потока : 265 Мбайт (2%)
Заголовок : Lord32x
Язык : Russian
Default : Да
Forced : Да

Аудио #2
Идентификатор : 3
Формат : DTS
Формат/Информация : Digital Theater Systems
Режим : 16
Параметр Endianness формата : Big
Идентификатор кодека : A_DTS
Продолжительность : 2 ч. 45 м.
Вид битрейта : Постоянный
Битрейт : 1509 Кбит/сек
Каналы : 6 каналов
Расположение каналов : Front: L C R, Side: L R, LFE
Частота : 48,0 КГц
Битовая глубина : 24 бит
Метод сжатия : С потерями
Размер потока : 1,75 Гбайт (15%)
Язык : English
Default : Нет
Forced : Нет

Текст #1
Идентификатор : 4
Формат : UTF-8
Идентификатор кодека : S_TEXT/UTF8
Идентификатор кодека/Информация : UTF-8 Plain Text
Язык : Russian
Default : Да
Forced : Да

Текст #2
Идентификатор : 5
Формат : UTF-8
Идентификатор кодека : S_TEXT/UTF8
Идентификатор кодека/Информация : UTF-8 Plain Text
Заголовок : notabenoid
Язык : Russian
Default : Нет
Forced : Нет

Текст #3
Идентификатор : 6
Формат : UTF-8
Идентификатор кодека : S_TEXT/UTF8
Идентификатор кодека/Информация : UTF-8 Plain Text
Язык : English
Default : Нет
Forced : Нет

Меню
00:00:00.000 : en:00:00:00.000
00:08:52.949 : en:00:08:52.949
00:15:59.292 : en:00:15:59.292
00:25:01.917 : en:00:25:01.917
00:34:56.636 : en:00:34:56.636
00:44:47.351 : en:00:44:47.351
00:52:26.060 : en:00:52:26.060
00:59:31.109 : en:00:59:31.109
01:07:36.719 : en:01:07:36.719
01:12:25.550 : en:01:12:25.550
01:22:55.554 : en:01:22:55.554
01:31:25.772 : en:01:31:25.772
01:42:00.656 : en:01:42:00.656
01:49:05.539 : en:01:49:05.539
01:54:18.769 : en:01:54:18.769
02:00:53.538 : en:02:00:53.538
02:11:11.572 : en:02:11:11.572
02:23:06.411 : en:02:23:06.411
02:30:44.994 : en:02:30:44.994
02:39:58.798 : en:02:39:58.798
Берлинский кинофестиваль, 2014 год
Победитель (3):
Серебряный Медведь за лучшую режиссерскую работу (Ричард Линклейтер)
Приз гильдии немецкого арт-хауса
Приз газеты Berliner Morgenpost
Номинации (1):
Золотой Медведь


Релиз от:
загрузка...
Правила, инструкции, FAQ!!!
Торрент  Добавлен [30 окт 2014, 19:12] Скачать торрент
Скачать торрент
[ Размер 29.06 КБ / Просмотров 13 ]

Статус
Проверен 
 
Размер  11.38 ГБ
Приватный: Нет (DHT включён)
.torrent скачан  77
Как залить торрент? | Как скачать Torrent? | Как смотреть и слушать онлайн?  


     Отправить личное сообщение
   
Страница 1 из 1
Показать сообщения за:  Поле сортировки  
Начать новую тему Ответить на тему

   Похожие торренты   Автор   Ответы   Просмотры   Последнее сообщение 
В этой теме нет новых непрочитанных сообщений. Скачать торрент Проверен Отрочество / Boyhood (2014) BDRip 720p | L1

в форуме 720p | 1080p, Размер: 6.69 ГБ, Здоровье: 100%

Anonymous

0
35|14

23
98

30 окт 2014, 18:55

Anonymous Перейти к последнему сообщению

В этой теме нет новых непрочитанных сообщений. Скачать торрент Проверен Отрочество / Boyhood (2014) BDRip [576p] iPad [Line]

в форуме Фильмы для iPod, iPhone, iPad, Размер: 2.81 ГБ, Здоровье: 100%

Anonymous

0
35|2

91
0

13 дек 2014, 00:14

Anonymous Перейти к последнему сообщению

В этой теме нет новых непрочитанных сообщений. Скачать торрент Проверен [iPad] Отрочество / Boyhood (Ричард Линклейтер / Richard Linklater ) [2014, США, Драма, BDRip, SD (576p)] DUB + Original + sub (rus)

в форуме Фильмы для iPod, iPhone, iPad, Размер: 2.81 ГБ, Здоровье: 100%

Гость

0
56|19

19
1

11 май 2015, 01:36

Гость Перейти к последнему сообщению

В этой теме нет новых непрочитанных сообщений. Скачать торрент Проверен Отрочество / Boyhood (2014) WEBRip | L1

в форуме Драмы, Мелодрамы, Размер: 1.47 ГБ, Здоровье: 100%

Anonymous

0
140|12

41
192

06 окт 2014, 16:35

Anonymous Перейти к последнему сообщению

В этой теме нет новых непрочитанных сообщений. Скачать торрент Проверен L'Arc-en-Ciel - live 2014 at Kokuritsu Kyogijo [2014, Rock, BDRip 1080p]

в форуме Концерты (HD-Video), Размер: 8.06 ГБ, Здоровье: 100%

Anonymous

0
58|12

196
12

29 апр 2015, 19:29

Anonymous Перейти к последнему сообщению



Сейчас этот форум просматривают: нет зарегистрированных пользователей и гости: 1


Вы не можете начинать темы
Вы не можете отвечать на сообщения
Вы не можете редактировать свои сообщения
Вы не можете удалять свои сообщения
Вы не можете добавлять вложения

Перейти:  

!ВНИМАНИЕ!
 Ресурс не предоставляет электронные версии произведений, а занимается лишь коллекционированием и каталогизацией ссылок, присылаемых и публикуемых на форуме нашими читателями. Если вы являетесь правообладателем какого-либо представленного материала и не желаете чтобы ссылка на него находилась в нашем каталоге, свяжитесь с нами и мы незамедлительно удалим её. Файлы для обмена на трекере предоставлены пользователями сайта, и администрация не несёт ответственности за их содержание. Просьба не заливать файлы, защищенные авторскими правами, а также файлы нелегального содержания!