На всех торрентах на трекере установлена скидка на скачивание в размере 100 процентов(а).
 Возможность скачивания торрента НЕ зависит от ограничений при низком ратио, низком аплоаде, требуемом ратио или требуемом аплоаде.


Начать новую тему Ответить на тему
Статистика раздачи
Размер: 7.76 ГБ | Добавлен: 30 окт 2014, 17:36 | Скачали: 92
Сидеров: 24  [0 байт/сек]    Личеров: 13  [0 байт/сек]
Пред. тема | След. тема 

Автор
Сообщение

СообщениеДобавлено: 30 окт 2014, 17:36 

Русское название: 10 причин моей ненависти
Оригинальное название: 10 Things I Hate About You
Год выпуска: 1999
Жанр: драма, мелодрама, комедия
Выпущено: США
Продолжительность: 01:37:36
Перевод: Профессиональный многоголосый [Лицензия]

Режиссер: Джил Джангер / Gil Junger
В ролях: Хит Леджер (Patrick Verona), Джулия Стайлз (Kat Stratford), Джозеф Гордон-Левитт (Cameron James), Лариса Олейник (Bianca Stratford), Дэвид Крамхолц (Michael), Эндрю Кигэн (Joey Donner), Сьюзэн Мэй Прэтт (Mandella), Гэбриэл Юнион (Chastity), Ларри Миллер (Walter Stratford), Дэрил Митчелл (Mr. Morgan), Эллисон Дженни (Ms. Perky), Дэвид Лесур (Mr. Chapin)

Сюжет фильма:
Строгий отец поставил условие: Бьянка пойдет на свидание, если ее сестра Кэт тоже согласится встретиться с парнем. Но Кэт - синий чулок и отчаянная мужененавистница. Бьянка пытается найти для сестры такого же зануду, как она.

Качество: BDRip 1080p (исходник Blu-ray)
Формат: AVC(библиотека кодирования x.264)
Контейнер (Расширение): MKV
Видео: AVC, 1920x1040 (16:9), 10550 Кбит/сек, 23,976 кадр/сек, 0,220 Бит/[Пиксели*Кадры]
Аудио №1: русский / AC3 / 2.0 / 48 kHz / 192 kbps / 16 bit |Профессиональный многоголосый|
Аудио №2: английский / AC3 / 5.1 / 48 kHz / 640 kbps / 16 bit
Субтитры: русские (russian),
Навигация по главам(Чаптеры): есть

Автор рипа:

Format : Matroska
Format version : Version 2
File size : 7.76 GiB
Duration : 1h 37mn
Overall bit rate : 11.4 Mbps
Movie name : 10 prichin moej nenavisti.(1999).BDRip.1080p.[denis100]
Encoded date : UTC 2014-10-30 08:29:23
Writing application : mkvmerge v5.8.0 ('No Sleep / Pillow') built on Sep 2 2012 15:37:04
Writing library : libebml v1.2.3 + libmatroska v1.3.0

Video
ID : 1
Format : AVC
Format/Info : Advanced Video Codec
Format profile : High@L4.1
Format settings, CABAC : Yes
Format settings, ReFrames : 4 frames
Codec ID : V_MPEG4/ISO/AVC
Duration : 1h 37mn
Bit rate : 10.6 Mbps
Width : 1 920 pixels
Height : 1 040 pixels
Display aspect ratio : 16:9
Frame rate : 23.976 fps
Color space : YUV
Chroma subsampling : 4:2:0
Bit depth : 8 bits
Scan type : Progressive
Bits/(Pixel*Frame) : 0.220
Stream size : 7.04 GiB (91%)
Title : 10 prichin moej nenavisti.(1999).BDRip.1080p.[denis100]
Writing library : x264 core 142 r2479 dd79a61
Encoding settings : cabac=1 / ref=4 / deblock=1:-3:-3 / analyse=0x3:0x133 / me=umh / subme=11 / psy=1 / psy_rd=1.00:0.10 / mixed_ref=1 / me_range=32 / chroma_me=1 / trellis=2 / 8x8dct=1 / cqm=0 / deadzone=21,11 / fast_pskip=0 / chroma_qp_offset=-3 / threads=6 / lookahead_threads=1 / sliced_threads=0 / nr=0 / decimate=1 / interlaced=0 / bluray_compat=0 / constrained_intra=0 / bframes=8 / b_pyramid=2 / b_adapt=2 / b_bias=0 / direct=3 / weightb=1 / open_gop=0 / weightp=2 / keyint=240 / keyint_min=23 / scenecut=40 / intra_refresh=0 / rc=2pass / mbtree=0 / bitrate=10550 / ratetol=1.0 / qcomp=0.60 / qpmin=0 / qpmax=69 / qpstep=4 / cplxblur=20.0 / qblur=0.5 / ip_ratio=1.40 / pb_ratio=1.30 / aq=1:0.90
Language : English
Default : Yes
Forced : No

Audio #1
ID : 2
Format : AC-3
Format/Info : Audio Coding 3
Mode extension : CM (complete main)
Codec ID : A_AC3
Duration : 1h 37mn
Bit rate mode : Constant
Bit rate : 192 Kbps
Channel(s) : 2 channels
Channel positions : Front: L R
Sampling rate : 48.0 KHz
Bit depth : 16 bits
Compression mode : Lossy
Stream size : 134 MiB (2%)
Title : Профессиональный многоголосый
Language : Russian
Default : Yes
Forced : No

Audio #2
ID : 3
Format : AC-3
Format/Info : Audio Coding 3
Mode extension : CM (complete main)
Codec ID : A_AC3
Duration : 1h 37mn
Bit rate mode : Constant
Bit rate : 640 Kbps
Channel(s) : 6 channels
Channel positions : Front: L C R, Side: L R, LFE
Sampling rate : 48.0 KHz
Bit depth : 16 bits
Compression mode : Lossy
Stream size : 447 MiB (6%)
Title : English
Language : English
Default : No
Forced : No

Text
ID : 4
Format : UTF-8
Codec ID : S_TEXT/UTF8
Codec ID/Info : UTF-8 Plain Text
Title : russian
Language : Russian
Default : No
Forced : No

Menu
00:00:00.000 : en:Chapter 01
00:05:44.469 : en:Chapter 02
00:12:34.127 : en:Chapter 03
00:15:51.282 : en:Chapter 04
00:21:54.396 : en:Chapter 05
00:25:59.391 : en:Chapter 06
00:31:53.494 : en:Chapter 07
00:36:00.741 : en:Chapter 08
00:41:40.998 : en:Chapter 09
00:51:32.631 : en:Chapter 10
00:56:35.350 : en:Chapter 11
01:00:01.222 : en:Chapter 12
01:03:02.361 : en:Chapter 13
01:05:06.485 : en:Chapter 14
01:07:39.597 : en:Chapter 15
01:10:15.461 : en:Chapter 16
01:14:55.490 : en:Chapter 17
01:18:12.187 : en:Chapter 18
01:25:58.111 : en:Chapter 19
01:29:08.718 : en:Chapter 20
01:32:11.192 : en:Chapter 21
01:37:36.140 : en:Chapter 22
загрузка...
Правила, инструкции, FAQ!!!
Торрент  Добавлен [30 окт 2014, 17:36] Скачать торрент
Скачать торрент
[ Размер 39.33 КБ / Просмотров 4 ]

Статус
Проверен 
 
Размер  7.76 ГБ
Приватный: Нет (DHT включён)
.torrent скачан  92
Как залить торрент? | Как скачать Torrent? | Как смотреть и слушать онлайн?  


     Отправить личное сообщение
   
Страница 1 из 1
Показать сообщения за:  Поле сортировки  
Начать новую тему Ответить на тему

   Похожие торренты   Автор   Ответы   Просмотры   Последнее сообщение 
В этой теме нет новых непрочитанных сообщений. Скачать торрент 10 причин моей ненависти / 10 Things I Hate About You (1999) BDRip

в форуме Комедии, Размер: 1.76 ГБ, Здоровье: 100%

Anonymous

0
31|5

20
61

19 дек 2013, 16:19

Anonymous Перейти к последнему сообщению

В этой теме нет новых непрочитанных сообщений. Скачать торрент Проверен Blue October - Things We Do At Night (Live from Texas) [2015, Rock, Alternative Rock, Post-Grunge, Punk/New Wave, BDRip 1080p]

в форуме Концерты (HD-Video), Размер: 6.12 ГБ, Здоровье: 100%

Anonymous

0
7|2

1
0

23 окт 2016, 16:20

Anonymous Перейти к последнему сообщению

В этой теме нет новых непрочитанных сообщений. Скачать торрент Проверен (Progressive Rock) Hate - 1970 - Hate Kills (2010 remastered), FLAC (image+.cue), lossless

в форуме Progressive & Art-Rock, Размер: 244.12 МБ, Здоровье: 0%

Anonymous

0
0|0

5
0

30 авг 2016, 18:31

Anonymous Перейти к последнему сообщению

В этой теме нет новых непрочитанных сообщений. Скачать торрент Проверен (Hard Rock, Heavy Blues) Toad - Hate to Hate - 1993, FLAC (tracks+.cue) lossless

в форуме Classic Rock & Hard Rock, Размер: 338.2 МБ, Здоровье: 0%

Anonymous

0
0|0

1
0

05 сен 2016, 21:00

Anonymous Перейти к последнему сообщению

В этой теме нет новых непрочитанных сообщений. Скачать торрент Проверен Побудь в моей шкуре / Под кожей / Under the Skin (2013) WEB-DL 1080p | A

в форуме 720p | 1080p, Размер: 4.17 ГБ, Здоровье: 100%

Anonymous

0
151|3

168
1103

27 июн 2014, 18:20

Anonymous Перейти к последнему сообщению



Сейчас этот форум просматривают: нет зарегистрированных пользователей и гости: 4


Вы не можете начинать темы
Вы не можете отвечать на сообщения
Вы не можете редактировать свои сообщения
Вы не можете удалять свои сообщения
Вы не можете добавлять вложения

Перейти:  

!ВНИМАНИЕ!
 Ресурс не предоставляет электронные версии произведений, а занимается лишь коллекционированием и каталогизацией ссылок, присылаемых и публикуемых на форуме нашими читателями. Если вы являетесь правообладателем какого-либо представленного материала и не желаете чтобы ссылка на него находилась в нашем каталоге, свяжитесь с нами и мы незамедлительно удалим её. Файлы для обмена на трекере предоставлены пользователями сайта, и администрация не несёт ответственности за их содержание. Просьба не заливать файлы, защищенные авторскими правами, а также файлы нелегального содержания!