На всех торрентах на трекере установлена скидка на скачивание в размере 100 процентов(а).
 Возможность скачивания торрента НЕ зависит от ограничений при низком ратио, низком аплоаде, требуемом ратио или требуемом аплоаде.


Начать новую тему Ответить на тему
Статистика раздачи
Размер: 10.08 ГБ | Добавлен: 29 окт 2014, 17:47 | Скачали: 309
Сидеров: 15  [0 байт/сек]    Личеров: 1  [0 байт/сек]
Пред. тема | След. тема 

Автор
Сообщение

СообщениеДобавлено: 29 окт 2014, 17:47 

Название: Самоволка
Оригинальное название: Lionheart
Год выпуска: 1990
Страна: США
Жанр: Боевик, спорт
Продолжительность: 01:45:08

Перевод: Профессиональный (многоголосый, закадровый) x 2 - Twister, ОРТ
Перевод: Авторский (одноголосый) x 5 - Гаврилов, Володарский, Либергал, Толбин, Kyberpunk
Cубтитры: Русские
Режиссер: Шелдон Леттич

В ролях: Жан-Клод Ван Дамм, Харрисон Пейдж, Дебора Реннард, Лиза Пеликан, Эшли Джонсон, Брайан Томпсон, Войо Горич, Мишель Кисси, Джордж МакДэниэл, Эрик Карсон

Описание: Узнав, что его брат в Лос-Анджелесе серьезно ранен, Лайон Голтье дезертирует из французского иностранного легиона, базирующегося в отдаленном районе Северной Африки.
Скрываясь от двух боевиков-легионеров, которым дан приказ вернуть его любой ценой, Лайон против своего желания становится участником незаконных боев современных гладиаторов, дерущихся голыми руками для развлечения богатых. Ему нужны деньги, чтобы помочь семье своего брата.


Качество: BDRip 1080p
Формат: MKV
Видео кодек: H264
Аудио кодек: AC3
Видео: MPEG4 Video (H264), 1920x1040, 29.970fps, 12.0 Mbps
Аудио #1: Dolby AC3, 48000 Hz, 2ch, 192 kbps - Twister
Аудио #2: Dolby AC3, 48000 Hz, 2ch, 192 kbps - РТР
Аудио #3: Dolby AC3, 48000 Hz, 2ch, 192 kbps - Гаврилов (ранний)
Аудио #4: Dolby AC3, 48000 Hz, 2ch, 192 kbps - Гаврилов (поздний)
Аудио #5: Dolby AC3, 48000 Hz, 2ch, 192 kbps - Володарский
Аудио #6: Dolby AC3, 48000 Hz, 2ch, 192 kbps - Либергал
Аудио #7: Dolby AC3, 48000 Hz, 2ch, 192 kbps - Толбин
Аудио #8: Dolby AC3, 48000 Hz, 2ch, 192 kbps - Kyberpunk
Аудио #9: Dolby AC3, 48000 Hz, 2ch, 192 kbps - Английский

Сэмпл

General
Unique ID : 199873016100712681821612061563541467219 (0x965E24869140ADDCB6BAB2253EE33053)
Complete name : F:Torrent 21990.Samovolka.renta23.mkv
Format : Matroska
Format version : Version 4 / Version 2
File size : 10.1 GiB
Duration : 1h 45mn
Overall bit rate : 13.7 Mbps
Encoded date : UTC 2014-10-23 00:55:00
Writing application : mkvmerge v7.1.0 ('Good Love') 32bit built on Jul 27 2014 12:59:18
Writing library : libebml v1.3.0 + libmatroska v1.4.1
DURATION : 01:39:16.442000000
NUMBER_OF_FRAMES : 1186
NUMBER_OF_BYTES : 48358
_STATISTICS_WRITING_APP : mkvmerge v7.1.0 ('Good Love') 32bit built on Jul 27 2014 12:59:18
_STATISTICS_WRITING_DATE_UTC : 2014-10-23 00:55:00
_STATISTICS_TAGS : BPS DURATION NUMBER_OF_FRAMES NUMBER_OF_BYTES

Video
ID : 1
Format : AVC
Format/Info : Advanced Video Codec
Format profile : High@L4.1
Format settings, CABAC : Yes
Format settings, ReFrames : 3 frames
Codec ID : V_MPEG4/ISO/AVC
Duration : 1h 45mn
Nominal bit rate : 12.0 Mbps
Width : 1 920 pixels
Height : 1 040 pixels
Display aspect ratio : 1.85:1
Frame rate mode : Constant
Frame rate : 29.970 fps
Color space : YUV
Chroma subsampling : 4:2:0
Bit depth : 8 bits
Scan type : Progressive
Bits/(Pixel*Frame) : 0.201
Title : Самоволка / Lionheart (1990) / renta23
Writing library : x264 core 125 r2208 d9d2288
Encoding settings : cabac=1 / ref=4 / deblock=1:-1:-1 / analyse=0x3:0x133 / me=umh / subme=11 / psy=1 / psy_rd=1.15:0.25 / mixed_ref=1 / me_range=24 / chroma_me=1 / trellis=2 / 8x8dct=1 / cqm=0 / deadzone=21,11 / fast_pskip=0 / chroma_qp_offset=-4 / threads=12 / lookahead_threads=2 / sliced_threads=0 / nr=0 / decimate=1 / interlaced=0 / bluray_compat=0 / constrained_intra=0 / bframes=6 / b_pyramid=1 / b_adapt=2 / b_bias=0 / direct=3 / weightb=1 / open_gop=0 / weightp=2 / keyint=250 / keyint_min=25 / scenecut=40 / intra_refresh=0 / rc_lookahead=50 / rc=2pass / mbtree=1 / bitrate=12000 / ratetol=1.0 / qcomp=0.60 / qpmin=0 / qpmax=69 / qpstep=4 / cplxblur=20.0 / qblur=0.5 / ip_ratio=1.40 / aq=1:1.00
Language : English
Default : Yes
Forced : No

Audio #1
ID : 2
Format : AC-3
Format/Info : Audio Coding 3
Mode extension : CM (complete main)
Format settings, Endianness : Big
Codec ID : A_AC3
Duration : 1h 45mn
Bit rate mode : Constant
Bit rate : 192 Kbps
Channel(s) : 2 channels
Channel positions : Front: L R
Sampling rate : 48.0 KHz
Bit depth : 16 bits
Compression mode : Lossy
Stream size : 144 MiB (1%)
Title : Многоголосый - Twister
Language : Russian
Default : Yes
Forced : No

Audio #2
ID : 3
Format : AC-3
Format/Info : Audio Coding 3
Mode extension : CM (complete main)
Format settings, Endianness : Big
Codec ID : A_AC3
Duration : 1h 45mn
Bit rate mode : Constant
Bit rate : 192 Kbps
Channel(s) : 2 channels
Channel positions : Front: L R
Sampling rate : 48.0 KHz
Bit depth : 16 bits
Compression mode : Lossy
Stream size : 144 MiB (1%)
Title : Многоголосый - РТР
Language : Russian
Default : No
Forced : No

Audio #3
ID : 4
Format : AC-3
Format/Info : Audio Coding 3
Mode extension : CM (complete main)
Format settings, Endianness : Big
Codec ID : A_AC3
Duration : 1h 45mn
Bit rate mode : Constant
Bit rate : 192 Kbps
Channel(s) : 2 channels
Channel positions : Front: L R
Sampling rate : 48.0 KHz
Bit depth : 16 bits
Compression mode : Lossy
Stream size : 144 MiB (1%)
Title : Одноголосый - Гаврилов (ранний)
Language : Russian
Default : No
Forced : No

Audio #4
ID : 5
Format : AC-3
Format/Info : Audio Coding 3
Mode extension : CM (complete main)
Format settings, Endianness : Big
Codec ID : A_AC3
Duration : 1h 45mn
Bit rate mode : Constant
Bit rate : 192 Kbps
Channel(s) : 2 channels
Channel positions : Front: L R
Sampling rate : 48.0 KHz
Bit depth : 16 bits
Compression mode : Lossy
Stream size : 144 MiB (1%)
Title : Одноголосый - Гаврилов (поздний)
Language : Russian
Default : No
Forced : No

Audio #5
ID : 6
Format : AC-3
Format/Info : Audio Coding 3
Mode extension : CM (complete main)
Format settings, Endianness : Big
Codec ID : A_AC3
Duration : 1h 45mn
Bit rate mode : Constant
Bit rate : 192 Kbps
Channel(s) : 2 channels
Channel positions : Front: L R
Sampling rate : 48.0 KHz
Bit depth : 16 bits
Compression mode : Lossy
Stream size : 144 MiB (1%)
Title : Одноголосый - Володарский
Language : Russian
Default : No
Forced : No

Audio #6
ID : 7
Format : AC-3
Format/Info : Audio Coding 3
Mode extension : CM (complete main)
Format settings, Endianness : Big
Codec ID : A_AC3
Duration : 1h 45mn
Bit rate mode : Constant
Bit rate : 192 Kbps
Channel(s) : 2 channels
Channel positions : Front: L R
Sampling rate : 48.0 KHz
Bit depth : 16 bits
Compression mode : Lossy
Stream size : 144 MiB (1%)
Title : Одноголосый - Либергал
Language : Russian
Default : No
Forced : No

Audio #7
ID : 8
Format : AC-3
Format/Info : Audio Coding 3
Codec ID : A_AC3
Duration : 1h 45mn
Channel(s) : 2 channels
Sampling rate : 48.0 KHz
Compression mode : Lossy
Title : Одноголосый - Толбин
Language : Russian
Default : No
Forced : No

Audio #8
ID : 9
Format : AC-3
Format/Info : Audio Coding 3
Codec ID : A_AC3
Duration : 1h 45mn
Channel(s) : 2 channels
Sampling rate : 48.0 KHz
Compression mode : Lossy
Title : Одноголосый - Kyberpunk
Language : Russian
Default : No
Forced : No

Audio #9
ID : 10
Format : AC-3
Format/Info : Audio Coding 3
Codec ID : A_AC3
Duration : 1h 45mn
Channel(s) : 2 channels
Sampling rate : 48.0 KHz
Compression mode : Lossy
Language : English
Default : No
Forced : No

Text
ID : 11
Format : UTF-8
Codec ID : S_TEXT/UTF8
Codec ID/Info : UTF-8 Plain Text
Language : Russian
Default : Yes
Forced : No

Menu
00:00:00.000 : en:Chapter 01
00:09:43.000 : en:Chapter 02
00:16:45.000 : en:Chapter 03
00:28:33.000 : en:Chapter 04
00:39:23.000 : en:Chapter 05
00:53:25.000 : en:Chapter 06
00:59:43.000 : en:Chapter 07
01:09:43.000 : en:Chapter 08
01:19:49.000 : en:Chapter 09
01:29:59.000 : en:Chapter 10
01:39:57.000 : en:Chapter 11





загрузка...
Правила, инструкции, FAQ!!!
Торрент  Добавлен [29 окт 2014, 17:47] Скачать торрент
Скачать торрент
[ Размер 50.9 КБ / Просмотров 12 ]

Статус
Проверен 
 
Размер  10.08 ГБ
Приватный: Нет (DHT включён)
.torrent скачан  309
Как залить торрент? | Как скачать Torrent? | Как смотреть и слушать онлайн?  


     Отправить личное сообщение
   
Страница 1 из 1
Показать сообщения за:  Поле сортировки  
Начать новую тему Ответить на тему

   Похожие торренты   Автор   Ответы   Просмотры   Последнее сообщение 
В этой теме нет новых непрочитанных сообщений. Скачать торрент Самоволка / Леон / Lionheart (1990) WEB-DLRip

в форуме Боевики, Размер: 1.91 ГБ, Здоровье: 100%

Anonymous

0
2|0

46
8

24 мар 2014, 08:00

Anonymous Перейти к последнему сообщению

В этой теме нет новых непрочитанных сообщений. Скачать торрент Самоволка / Леон / Львиное сердце / Lionheart (1990) WEB-DL 720p | Гаврилов

в форуме 720p | 1080p, Размер: 3.27 ГБ, Здоровье: 100%

Anonymous

0
10|1

49
61

24 мар 2014, 08:03

Anonymous Перейти к последнему сообщению

В этой теме нет новых непрочитанных сообщений. Скачать торрент Эйр Америка / Air America (1990) BDRip 1080p

в форуме 720p | 1080p, Размер: 11.55 ГБ, Здоровье: 100%

Anonymous

0
3|1

88
37

06 апр 2014, 12:30

Anonymous Перейти к последнему сообщению

В этой теме нет новых непрочитанных сообщений. Скачать торрент Проверен Повелитель Мух / Lord Of The Flies (1990) BDRip 1080p | P

в форуме 720p | 1080p, Размер: 7.77 ГБ, Здоровье: 100%

Гость

0
31|0

220
48

20 дек 2015, 12:28

Гость Перейти к последнему сообщению

В этой теме нет новых непрочитанных сообщений. Скачать торрент Проверен Ночной народ / Nightbreed (1990) BDRip 1080p

в форуме 720p | 1080p, Размер: 7.81 ГБ, Здоровье: 100%

Anonymous

0
23|7

22
134

09 ноя 2014, 19:26

Anonymous Перейти к последнему сообщению



Сейчас этот форум просматривают: нет зарегистрированных пользователей и гости: 4


Вы не можете начинать темы
Вы не можете отвечать на сообщения
Вы не можете редактировать свои сообщения
Вы не можете удалять свои сообщения
Вы не можете добавлять вложения

Перейти:  

!ВНИМАНИЕ!
 Ресурс не предоставляет электронные версии произведений, а занимается лишь коллекционированием и каталогизацией ссылок, присылаемых и публикуемых на форуме нашими читателями. Если вы являетесь правообладателем какого-либо представленного материала и не желаете чтобы ссылка на него находилась в нашем каталоге, свяжитесь с нами и мы незамедлительно удалим её. Файлы для обмена на трекере предоставлены пользователями сайта, и администрация не несёт ответственности за их содержание. Просьба не заливать файлы, защищенные авторскими правами, а также файлы нелегального содержания!