На всех торрентах на трекере установлена скидка на скачивание в размере 100 процентов(а).
 Возможность скачивания торрента НЕ зависит от ограничений при низком ратио, низком аплоаде, требуемом ратио или требуемом аплоаде.


Начать новую тему Ответить на тему
Статистика раздачи
Размер: 7.3 ГБ | Добавлен: 28 окт 2014, 20:18 | Скачали: 95
Сидеров: 30  [0 байт/сек]    Личеров: 1  [0 байт/сек]
Пред. тема | След. тема 

Автор
Сообщение

СообщениеДобавлено: 28 окт 2014, 20:18 

Название: Цельнометаллическая оболочка
Оригинальное название: Full Metal Jacket
Год выхода: 1987
Жанр: драма, военный
Режиссер: Стэнли Кубрик
В ролях: Мэтью Модайн, Адам Болдуин, Винсент Д`Онофрио, Р. Ли Эрми, Дориан Хэрвуд, Кевин Мейджор Ховард, Арлисс Ховард, Эд О`Росс, Джон Терри, Кирон Джеккинис

О фильме:
Американская база подготовки новобранцев корпуса морской пехоты. Жесточайшая, бесчеловечная система призвана превратить домашних мальчишек в натренированных хладнокровных убийц. Их готовят к войне во Вьетнаме, где им придется часто задавать себе вопрос «Разве война - это не ад?», а иначе просто невозможно убивать каждый день, не понимая, для чего это?

Страна: США, Великобритания
Продолжительность: 01:56:30
Перевод: Профессиональный (многоголосый закадровый) + Авторский (Дмитрий "Гоблин" Пучков)


Кодек: x.264
Качество: BDRip 1080p
Видео: 7700 kb/s, 1920x1080, 23.976 fps
Звук: AC3, 448 kb/s (6Ch)-(многоголосый закадровый) + AC3, 448 kb/s (6Ch)-Авторский (Дмитрий "Гоблин" Пучков) + AC3, 448 kb/s (6Ch)-Оригинал
Субтитры: English, English (SDH), Russian (R5), Russian ("Гоблин")
Сохранены оригинальные чаптеры Blu-Ray

Семпл





General
Format : Matroska
File size : 7.30 GiB
Duration : 1h 56mn
Overall bit rate : 8 956 Kbps
Movie name : Цельнометаллическая оболочка / Full Metal Jacket (1987)-Rip by Neofilm for Lazeek.info
Encoded date : UTC 2011-01-29 07:46:11
Writing application : mkvmerge v4.1.1 ('Bouncin' Back') сборка от Jul 3 2010 22:54:08
Writing library : libebml v1.0.0 + libmatroska v1.0.0

Video
ID : 1
Format : AVC
Format/Info : Advanced Video Codec
Format profile : High@L4.1
Format settings, CABAC : Yes
Format settings, ReFrames : 4 frames
Codec ID : V_MPEG4/ISO/AVC
Duration : 1h 56mn
Bit rate : 7 700 Kbps
Width : 1 920 pixels
Height : 1 080 pixels
Display aspect ratio : 16:9
Frame rate : 23.976 fps
Color space : YUV
Chroma subsampling : 4:2:0
Bit depth : 8 bits
Scan type : Progressive
Bits/(Pixel*Frame) : 0.155
Stream size : 6.06 GiB (83%)
Title : Цельнометаллическая оболочка / Full Metal Jacket (1987)
Writing library : x264 core 112 r1867 22bfd31
Encoding settings : cabac=1 / ref=3 / deblock=1:-1:-1 / analyse=0x3:0x113 / me=umh / subme=9 / psy=1 / psy_rd=1.00:0.00 / mixed_ref=1 / me_range=32 / chroma_me=1 / trellis=1 / 8x8dct=1 / cqm=0 / deadzone=21,11 / fast_pskip=0 / chroma_qp_offset=-2 / threads=6 / sliced_threads=0 / nr=4 / decimate=0 / interlaced=0 / constrained_intra=0 / bframes=4 / b_pyramid=2 / b_adapt=2 / b_bias=0 / direct=3 / weightb=1 / open_gop=0 / weightp=2 / keyint=250 / keyint_min=23 / scenecut=40 / intra_refresh=0 / rc_lookahead=40 / rc=abr / mbtree=1 / bitrate=7700 / ratetol=1.4 / qcomp=0.60 / qpmin=10 / qpmax=51 / qpstep=4 / vbv_maxrate=40000 / vbv_bufsize=40000 / nal_hrd=none / ip_ratio=1.40 / aq=1:1.00
Language : English

Audio #1
ID : 2
Format : AC-3
Format/Info : Audio Coding 3
Mode extension : CM (complete main)
Codec ID : A_AC3
Duration : 1h 56mn
Bit rate mode : Constant
Bit rate : 448 Kbps
Channel(s) : 6 channels
Channel positions : Front: L C R, Side: L R, LFE
Sampling rate : 48.0 KHz
Bit depth : 16 bits
Compression mode : Lossy
Stream size : 374 MiB (5%)
Title : Профессиональный (многоголосый закадровый) |R5|
Language : Russian

Audio #2
ID : 3
Format : AC-3
Format/Info : Audio Coding 3
Mode extension : CM (complete main)
Codec ID : A_AC3
Duration : 1h 56mn
Bit rate mode : Constant
Bit rate : 448 Kbps
Channel(s) : 6 channels
Channel positions : Front: L C R, Side: L R, LFE
Sampling rate : 48.0 KHz
Bit depth : 16 bits
Compression mode : Lossy
Stream size : 374 MiB (5%)
Title : Авторский (одноголосый закадровый) |Дмитрий "Гоблин" Пучков|
Language : Russian

Audio #3
ID : 4
Format : AC-3
Format/Info : Audio Coding 3
Mode extension : CM (complete main)
Codec ID : A_AC3
Duration : 1h 56mn
Bit rate mode : Constant
Bit rate : 448 Kbps
Channel(s) : 6 channels
Channel positions : Front: L C R, Side: L R, LFE
Sampling rate : 48.0 KHz
Bit depth : 16 bits
Compression mode : Lossy
Stream size : 374 MiB (5%)
Title : Оригинал
Language : English

Text #1
ID : 5
Format : PGS
Codec ID : S_HDMV/PGS
Codec ID/Info : The same subtitle format used on BDs/HD-DVDs
Title : English
Language : English

Text #2
ID : 6
Format : PGS
Codec ID : S_HDMV/PGS
Codec ID/Info : The same subtitle format used on BDs/HD-DVDs
Title : English (SDH)
Language : English

Text #3
ID : 7
Format : PGS
Codec ID : S_HDMV/PGS
Codec ID/Info : The same subtitle format used on BDs/HD-DVDs
Title : Russian (R5)
Language : Russian

Text #4
ID : 8
Format : PGS
Codec ID : S_HDMV/PGS
Codec ID/Info : The same subtitle format used on BDs/HD-DVDs
Title : Russian ("Гоблин")
Language : Russian

Menu
00:00:00.000 : en:Chapter 00
00:01:34.094 : en:Chapter 01
00:07:32.285 : en:Chapter 02
00:09:58.264 : en:Chapter 03
00:13:18.339 : en:Chapter 04
00:17:35.054 : en:Chapter 05
00:19:39.678 : en:Chapter 06
00:23:47.134 : en:Chapter 07
00:28:07.894 : en:Chapter 08
00:30:14.813 : en:Chapter 09
00:32:24.776 : en:Chapter 10
00:33:52.363 : en:Chapter 11
00:38:19.005 : en:Chapter 12
00:40:00.231 : en:Chapter 13
00:42:54.905 : en:Chapter 14
00:45:26.724 : en:Chapter 15
00:47:49.366 : en:Chapter 16
00:51:59.616 : en:Chapter 17
00:56:33.723 : en:Chapter 18
00:58:34.719 : en:Chapter 19
01:01:30.687 : en:Chapter 20
01:03:41.484 : en:Chapter 21
01:05:51.113 : en:Chapter 22
01:09:00.010 : en:Chapter 23
01:10:24.762 : en:Chapter 24
01:12:19.543 : en:Chapter 25
01:15:35.531 : en:Chapter 26
01:17:52.501 : en:Chapter 27
01:19:46.615 : en:Chapter 28
01:22:57.222 : en:Chapter 29
01:25:30.792 : en:Chapter 30
01:28:24.632 : en:Chapter 31
01:30:53.197 : en:Chapter 32
01:35:40.776 : en:Chapter 33
01:38:44.710 : en:Chapter 34
01:41:43.347 : en:Chapter 35
01:45:10.304 : en:Chapter 36
01:51:05.408 : en:Chapter 37
01:52:53.266 : en:Chapter 38
загрузка...
Правила, инструкции, FAQ!!!
Торрент  Добавлен [28 окт 2014, 20:18] Скачать торрент
Скачать торрент
[ Размер 37.02 КБ / Просмотров 16 ]

Статус
Проверен 
 
Размер  7.3 ГБ
Приватный: Нет (DHT включён)
.torrent скачан  95
Как залить торрент? | Как скачать Torrent? | Как смотреть и слушать онлайн?  


     Отправить личное сообщение
   
Страница 1 из 1
Показать сообщения за:  Поле сортировки  
Начать новую тему Ответить на тему

   Похожие торренты   Автор   Ответы   Просмотры   Последнее сообщение 
В этой теме нет новых непрочитанных сообщений. Скачать торрент Проверен Цельнометаллическая оболочка / Full Metal Jacket (1987) BDRip [H.264]

в форуме Военные, Размер: 4.1 ГБ, Здоровье: 100%

Anonymous

0
164|27

87
0

04 апр 2016, 19:26

Anonymous Перейти к последнему сообщению

В этой теме нет новых непрочитанных сообщений. Скачать торрент Проверен Цельнометаллическая Оболочка / Full Metal Jacket (1987) HDRip | Р

в форуме Боевики, Размер: 1.45 ГБ, Здоровье: 100%

Anonymous

0
68|2

46
1

28 окт 2014, 20:14

Anonymous Перейти к последнему сообщению

В этой теме нет новых непрочитанных сообщений. Скачать торрент Проверен Цельнометаллическая Оболочка / Full Metal Jacket (1987) HDRip

в форуме Военные, Размер: 1.46 ГБ, Здоровье: 100%

Anonymous

0
36|3

109
1

04 апр 2016, 19:31

Anonymous Перейти к последнему сообщению

В этой теме нет новых непрочитанных сообщений. Скачать торрент Проверен Пиджак / The Jacket (2004) BDRip 1080p

в форуме 720p | 1080p, Размер: 4.37 ГБ, Здоровье: 100%

Anonymous

0
92|7

71
1037

19 сен 2014, 19:26

Anonymous Перейти к последнему сообщению

В этой теме нет новых непрочитанных сообщений. Скачать торрент Проверен Pagan's Mind - Full Circle: Live At Center Stage 2014 [2015, Progressive Rock, Progressive Heavy Metal, BDRip 1080p]

в форуме Концерты (HD-Video), Размер: 15.98 ГБ, Здоровье: 100%

Anonymous

0
1|0

0
0

23 окт 2016, 15:47

Anonymous Перейти к последнему сообщению



Сейчас этот форум просматривают: нет зарегистрированных пользователей и гости: 4


Вы не можете начинать темы
Вы не можете отвечать на сообщения
Вы не можете редактировать свои сообщения
Вы не можете удалять свои сообщения
Вы не можете добавлять вложения

Перейти:  

!ВНИМАНИЕ!
 Ресурс не предоставляет электронные версии произведений, а занимается лишь коллекционированием и каталогизацией ссылок, присылаемых и публикуемых на форуме нашими читателями. Если вы являетесь правообладателем какого-либо представленного материала и не желаете чтобы ссылка на него находилась в нашем каталоге, свяжитесь с нами и мы незамедлительно удалим её. Файлы для обмена на трекере предоставлены пользователями сайта, и администрация не несёт ответственности за их содержание. Просьба не заливать файлы, защищенные авторскими правами, а также файлы нелегального содержания!