На всех торрентах на трекере установлена скидка на скачивание в размере 100 процентов(а).
 Возможность скачивания торрента НЕ зависит от ограничений при низком ратио, низком аплоаде, требуемом ратио или требуемом аплоаде.


Начать новую тему Ответить на тему
Статистика раздачи
Размер: 11.11 ГБ | Добавлен: 25 окт 2014, 11:11 | Скачали: 178
Сидеров: 10  [0 байт/сек]    Личеров: 0  [0 байт/сек]
Пред. тема | След. тема 

Автор
Сообщение

СообщениеДобавлено: 25 окт 2014, 11:11 

Название: Танец реальности
Оригинальное название: La danza de la realidad / The Dance of Reality
Год выхода: 2013
Жанр: Фэнтези, драма, биография
Режиссер: Алехандро Ходоровски
В ролях: Бронтис Ходоровски, Памела Флорес, Хермас Хершкович, Алехандро Ходоровски, Бастиан Боденхофер, Адан Ходоровски, Аксель Ходоровски, Андрес Кокс, Алисарине Дуколомб, Франциско Писарро Саенз де Уртури

О фильме:
Алехандро Ходоровский прославился не только своими сюрреалистичными фильмами, часто повергающими зрителей в настоящий шок, но и разработке собственной теории психомагии. Эта методика психологической терапии направлена на избавление от различных психических травм, которые человек получает в первые годы своей жизни. При её разработке Алехандро опирался на собственные воспоминания о детстве.





Выпущено: Чили, Франция / Caméra One, Le Soleil Films
Продолжительность: 02:12:29
Перевод: Профессиональное (многоголосое) [Чистый Звук]


Формат: MKV
Качество: BDRip 1080p
Видео: MPEG-4 AVC, 10300 Кбит/с, 1920x1040
Аудио: Русский (AC3, 2 ch, 192 Кбит/с), испанский (DTS, 6 chю 1510 Кбит/с)
Субтитры: Английские

Семпл

12+ зрителям, достигшим 12 лет
Общее
Уникальный идентификатор : 181287734413141987087437045578009968335 (0x8862BF6464D5624BAAC430DFE6CC7ECF)
Полное имя : F:Раздача HDThe.Dance.Of.Reality.2013.Blu.Ray.1080p.mkv
Формат : Matroska
Версия формата : Version 4 / Version 2
Размер файла : 11,1 Гбайт
Продолжительность : 2 ч. 12 м.
Общий поток : 12,0 Мбит/сек
Название фильма : Release Group CINEMANIA
Дата кодирования : UTC 2014-10-23 07:31:35
Программа кодирования : mkvmerge v7.2.0 ('On Every Street') 64bit built on Sep 13 2014 15:52:10
Библиотека кодирования : libebml v1.3.0 + libmatroska v1.4.1

Видео
Идентификатор : 1
Формат : AVC
Формат/Информация : Advanced Video Codec
Профиль формата : High@L4.1
Параметр CABAC формата : Да
Параметр ReFrames формата : 4 кадра
Идентификатор кодека : V_MPEG4/ISO/AVC
Продолжительность : 2 ч. 12 м.
Битрейт : 10,3 Мбит/сек
Ширина : 1920 пикселей
Высота : 1040 пикселей
Соотношение сторон : 1,85:1
Режим частоты кадров : Постоянный
Частота кадров : 23,976 кадра/сек
Цветовое пространство : YUV
Субдискретизация насыщенности : 4:2:0
Битовая глубина : 8 бит
Тип развёртки : Прогрессивная
Бит/(Пиксели*Кадры) : 0.215
Размер потока : 9,31 Гбайт (84%)
Заголовок : Release Group CINEMANIA
Библиотека кодирования : x264 core 142 r2479 dd79a61
Настройки программы : cabac=1 / ref=4 / deblock=1:-3:-3 / analyse=0x3:0x113 / me=umh / subme=8 / psy=1 / psy_rd=1.00:0.00 / mixed_ref=1 / me_range=16 / chroma_me=1 / trellis=1 / 8x8dct=1 / cqm=0 / deadzone=21,11 / fast_pskip=1 / chroma_qp_offset=-2 / threads=12 / lookahead_threads=2 / sliced_threads=0 / nr=0 / decimate=1 / interlaced=0 / bluray_compat=0 / constrained_intra=0 / bframes=3 / b_pyramid=2 / b_adapt=2 / b_bias=0 / direct=3 / weightb=1 / open_gop=0 / weightp=2 / keyint=240 / keyint_min=24 / scenecut=40 / intra_refresh=0 / rc_lookahead=50 / rc=2pass / mbtree=1 / bitrate=10290 / ratetol=1.0 / qcomp=0.60 / qpmin=0 / qpmax=69 / qpstep=4 / cplxblur=20.0 / qblur=0.5 / ip_ratio=1.40 / aq=1:1.00
Язык : English
Default : Да
Forced : Нет

Аудио #1
Идентификатор : 2
Формат : AC-3
Формат/Информация : Audio Coding 3
Расширение режима : CM (complete main)
Параметр Endianness формата : Big
Идентификатор кодека : A_AC3
Продолжительность : 2 ч. 12 м.
Вид битрейта : Постоянный
Битрейт : 192 Кбит/сек
Каналы : 2 канала
Расположение каналов : Front: L R
Частота : 48,0 КГц
Битовая глубина : 16 бит
Метод сжатия : С потерями
Размер потока : 182 Мбайт (2%)
Заголовок : Чистый звук
Язык : Russian
Default : Да
Forced : Да

Аудио #2
Идентификатор : 3
Формат : DTS
Формат/Информация : Digital Theater Systems
Режим : 16
Параметр Endianness формата : Big
Идентификатор кодека : A_DTS
Продолжительность : 2 ч. 12 м.
Вид битрейта : Постоянный
Битрейт : 1509 Кбит/сек
Каналы : 6 каналов
Расположение каналов : Front: L C R, Side: L R, LFE
Частота : 48,0 КГц
Битовая глубина : 24 бит
Метод сжатия : С потерями
Размер потока : 1,40 Гбайт (13%)
Язык : Spanish
Default : Нет
Forced : Нет

Текст #1
Идентификатор : 4
Формат : UTF-8
Идентификатор кодека : S_TEXT/UTF8
Идентификатор кодека/Информация : UTF-8 Plain Text
Язык : Russian
Default : Да
Forced : Да

Текст #2
Идентификатор : 5
Формат : UTF-8
Идентификатор кодека : S_TEXT/UTF8
Идентификатор кодека/Информация : UTF-8 Plain Text
Язык : English
Default : Нет
Forced : Нет

Меню
00:00:00.000 : en:00:00:00.000
00:09:02.667 : en:00:09:02.667
00:18:09.797 : en:00:18:09.797
00:24:59.248 : en:00:24:59.248
00:36:43.701 : en:00:36:43.701
00:43:50.586 : en:00:43:50.586
00:50:45.251 : en:00:50:45.251
01:01:27.100 : en:01:01:27.100
01:11:09.640 : en:01:11:09.640
01:18:03.220 : en:01:18:03.220
01:25:10.689 : en:01:25:10.689
01:34:21.614 : en:01:34:21.614
01:42:23.804 : en:01:42:23.804
01:52:21.360 : en:01:52:21.360
01:59:04.471 : en:01:59:04.471
02:07:57.628 : en:02:07:57.628


Релиз от:
загрузка...
Правила, инструкции, FAQ!!!
Торрент  Добавлен [25 окт 2014, 11:11] Скачать торрент
Скачать торрент
[ Размер 28.4 КБ / Просмотров 16 ]

Статус
Проверен 
 
Размер  11.11 ГБ
Приватный: Нет (DHT включён)
.torrent скачан  178
Как залить торрент? | Как скачать Torrent? | Как смотреть и слушать онлайн?  


     Отправить личное сообщение
   
Страница 1 из 1
Показать сообщения за:  Поле сортировки  
Начать новую тему Ответить на тему

   Похожие торренты   Автор   Ответы   Просмотры   Последнее сообщение 
В этой теме нет новых непрочитанных сообщений. Скачать торрент Проверен Танец реальности / La danza de la realidad / The Dance of Reality (2013) BDRip | Чистый Звук

в форуме Фантастика, Фэнтези, Размер: 2.06 ГБ, Здоровье: 100%

Anonymous

0
28|1

62
4

25 окт 2014, 11:06

Anonymous Перейти к последнему сообщению

В этой теме нет новых непрочитанных сообщений. Скачать торрент Проверен Танец реальности / La danza de la realidad / The Dance of Reality (2013) BDRip 720p | Чистый Звук

в форуме 720p | 1080p, Размер: 5.64 ГБ, Здоровье: 100%

Anonymous

0
39|5

37
340

25 окт 2014, 11:08

Anonymous Перейти к последнему сообщению

В этой теме нет новых непрочитанных сообщений. Скачать торрент Проверен Танец реальности / La danza de la realidad (2013) DVDRip | P

в форуме Фантастика, Фэнтези, Размер: 1.37 ГБ, Здоровье: 100%

Anonymous

0
40|2

72
943

23 авг 2014, 22:05

Anonymous Перейти к последнему сообщению

В этой теме нет новых непрочитанных сообщений. Скачать торрент Проверен Танец реальности / La danza de la realidad (2013) HDRip [576p] iPad [Line]

в форуме Фильмы для iPod, iPhone, iPad, Размер: 2.34 ГБ, Здоровье: 0%

Anonymous

0
0|0

48
0

13 дек 2014, 00:13

Anonymous Перейти к последнему сообщению

В этой теме нет новых непрочитанных сообщений. Скачать торрент Проверен [iPad] Танец реальности / La danza de la realidad (Алехандро Ходоровски / Alejandro Jodorowsky ) [2013, Франция, Фэнтези, драма, биография, HDRip, SD (576p)] MVO + Original + sub (eng)

в форуме Фильмы для iPod, iPhone, iPad, Размер: 2.34 ГБ, Здоровье: 100%

Гость

0
23|7

98
0

12 май 2015, 00:11

Гость Перейти к последнему сообщению



Сейчас этот форум просматривают: нет зарегистрированных пользователей и гости: 1


Вы не можете начинать темы
Вы не можете отвечать на сообщения
Вы не можете редактировать свои сообщения
Вы не можете удалять свои сообщения
Вы не можете добавлять вложения

Перейти:  

!ВНИМАНИЕ!
 Ресурс не предоставляет электронные версии произведений, а занимается лишь коллекционированием и каталогизацией ссылок, присылаемых и публикуемых на форуме нашими читателями. Если вы являетесь правообладателем какого-либо представленного материала и не желаете чтобы ссылка на него находилась в нашем каталоге, свяжитесь с нами и мы незамедлительно удалим её. Файлы для обмена на трекере предоставлены пользователями сайта, и администрация не несёт ответственности за их содержание. Просьба не заливать файлы, защищенные авторскими правами, а также файлы нелегального содержания!