На всех торрентах на трекере установлена скидка на скачивание в размере 100 процентов(а).
 Возможность скачивания торрента НЕ зависит от ограничений при низком ратио, низком аплоаде, требуемом ратио или требуемом аплоаде.


Начать новую тему Ответить на тему
Статистика раздачи
Размер: 7.76 ГБ | Добавлен: 25 окт 2014, 09:34 | Скачали: 137
Сидеров: 48  [0 байт/сек]    Личеров: 4  [0 байт/сек]
Пред. тема | След. тема 

Автор
Сообщение

СообщениеДобавлено: 25 окт 2014, 09:34 

Название: Легенды осени
Оригинальное название: Legends Of The Fall
Год выхода: 1994
Жанр: драма, мелодрама, вестерн, военный
Режиссер: Эдвард Цвик
В ролях: Брэд Питт, Энтони Хопкинс, Эйдан Куинн, Джулия Ормонд, Генри Томас, Карина Ломбард, Гордон Тутусис

О фильме:
«Некоторые люди очень ясно слышат свой внутренний голос, и живут так, как он им подсказывает. Такие люди сходят с ума. Или становятся легендами». Так начинается история семьи Ладлоу — стремительный и романтический рассказ о трех братьях, их отце и молодой и неотразимой женщине, которая роковым образом изменяет жизнь каждого из них.
С детства трое братьев неразлучны, однако они еще не подозревают, по какой тропе страстей и насилия поведет жизнь каждого из них.
Сквозь ужасы Первой Мировой, сквозь потерянные годы, последовавшие за войной, через любовь и потери, предательство и надежду. И в центре всегда оказывался недосягаемый, непредсказуемый Тристан.



Выпущено: США
Продолжительность: 02:12:49
Перевод: Дублированный + Оригинал


Кодек: x264
Качество: BDRip 1080p
Видео: 1920x1040, 7086 Kbps, 23.976 fps
Аудио #1: AC-3, 6 ch, 640 kbps (Rus)
Аудио #2: AC-3, 6 ch, 640 kbps (Eng)
Субтитры: русские, английские

Общее
Уникальный идентификатор : 192180198079899233696239625889921688017 (0x90948F505DA53DBA8A7FBF7E6244E1D1)
Полное имя : Легенды осени.1994.BDRip.1080p.Rus.Eng.mkv
Формат : Matroska
Версия формата : Version 2
Размер файла : 7,76 Гбайт
Продолжительность : 2 ч. 12 м.
Общий поток : 8368 Кбит/сек
Название фильма : Легенды осени.1994
Дата кодирования : UTC 2013-07-26 15:32:44
Программа кодирования : mkvmerge v5.8.0 ('No Sleep / Pillow') built on Sep 2 2012 15:37:04
Библиотека кодирования : libebml v1.2.3 + libmatroska v1.3.0

Видео
Идентификатор : 1
Формат : AVC
Формат/Информация : Advanced Video Codec
Профиль формата : High@L4.1
Параметр CABAC формата : Да
Параметр ReFrames формата : 4 кадра
Идентификатор кодека : V_MPEG4/ISO/AVC
Продолжительность : 2 ч. 12 м.
Битрейт : 7086 Кбит/сек
Ширина : 1920 пикселей
Высота : 1040 пикселей
Соотношение сторон : 1,85:1
Режим частоты кадров : Постоянный
Частота кадров : 23,976 кадра/сек
Цветовое пространство : YUV
Субдискретизация насыщенности : 4:2:0
Битовая глубина : 8 бит
Тип развёртки : Прогрессивная
Бит/(Пиксели*Кадры) : 0.148
Размер потока : 6,42 Гбайт (83%)
Заголовок : Rip by Boriy
Библиотека кодирования : x264 core 135 r2345 f0c1c53
Настройки программы : cabac=1 / ref=4 / deblock=1:-3:-3 / analyse=0x3:0x113 / me=umh / subme=11 / psy=1 / psy_rd=1.00:0.10 / mixed_ref=1 / me_range=32 / chroma_me=1 / trellis=2 / 8x8dct=1 / cqm=0 / deadzone=21,11 / fast_pskip=0 / chroma_qp_offset=-2 / threads=12 / lookahead_threads=1 / sliced_threads=0 / nr=0 / decimate=0 / interlaced=0 / bluray_compat=0 / constrained_intra=0 / bframes=6 / b_pyramid=2 / b_adapt=2 / b_bias=0 / direct=3 / weightb=1 / open_gop=0 / weightp=2 / keyint=240 / keyint_min=23 / scenecut=40 / intra_refresh=0 / rc=2pass / mbtree=0 / bitrate=7086 / ratetol=1.0 / qcomp=0.60 / qpmin=0 / qpmax=69 / qpstep=4 / cplxblur=20.0 / qblur=0.5 / ip_ratio=1.40 / pb_ratio=1.30 / aq=1:0.90
Язык : English
Default : Да
Forced : Нет

Аудио #1
Идентификатор : 2
Формат : AC-3
Формат/Информация : Audio Coding 3
Расширение режима : CM (complete main)
Параметр Endianness формата : Big
Идентификатор кодека : A_AC3
Продолжительность : 2 ч. 12 м.
Вид битрейта : Постоянный
Битрейт : 640 Кбит/сек
Каналы : 6 каналов
Расположение каналов : Front: L C R, Side: L R, LFE
Частота : 48,0 КГц
Битовая глубина : 16 бит
Метод сжатия : С потерями
Размер потока : 608 Мбайт (8%)
Заголовок : Дубляж
Язык : Russian
Default : Да
Forced : Нет

Аудио #2
Идентификатор : 3
Формат : AC-3
Формат/Информация : Audio Coding 3
Расширение режима : CM (complete main)
Параметр Endianness формата : Big
Идентификатор кодека : A_AC3
Продолжительность : 2 ч. 12 м.
Вид битрейта : Постоянный
Битрейт : 640 Кбит/сек
Каналы : 6 каналов
Расположение каналов : Front: L C R, Side: L R, LFE
Частота : 48,0 КГц
Битовая глубина : 16 бит
Метод сжатия : С потерями
Размер потока : 608 Мбайт (8%)
Заголовок : Оригинал
Язык : English
Default : Нет
Forced : Нет

Текст #1
Идентификатор : 4
Формат : UTF-8
Идентификатор кодека : S_TEXT/UTF8
Идентификатор кодека/Информация : UTF-8 Plain Text
Язык : Russian
Default : Нет
Forced : Нет

Текст #2
Идентификатор : 5
Формат : UTF-8
Идентификатор кодека : S_TEXT/UTF8
Идентификатор кодека/Информация : UTF-8 Plain Text
Язык : English
Default : Нет
Forced : Нет

Меню
00:00:00.000 : :Chapter 1
00:08:01.772 : :Chapter 2
00:15:00.941 : :Chapter 3
00:25:26.233 : :Chapter 4
00:34:06.044 : :Chapter 5
00:39:51.931 : :Chapter 6
00:50:03.458 : :Chapter 7
00:56:47.779 : :Chapter 8
01:05:58.245 : :Chapter 9
01:12:04.028 : :Chapter 10
01:22:04.336 : :Chapter 11
01:30:28.381 : :Chapter 12
01:37:19.667 : :Chapter 13
01:41:59.363 : :Chapter 14
01:53:30.512 : :Chapter 15
02:00:28.429 : :Chapter 16
загрузка...
Правила, инструкции, FAQ!!!
Торрент  Добавлен [25 окт 2014, 09:34] Скачать торрент
Скачать торрент
[ Размер 39.35 КБ / Просмотров 14 ]

Статус
Проверен 
 
Размер  7.76 ГБ
Приватный: Нет (DHT включён)
.torrent скачан  137
Как залить торрент? | Как скачать Torrent? | Как смотреть и слушать онлайн?  


     Отправить личное сообщение
   
Страница 1 из 1
Показать сообщения за:  Поле сортировки  
Начать новую тему Ответить на тему

   Похожие торренты   Автор   Ответы   Просмотры   Последнее сообщение 
В этой теме нет новых непрочитанных сообщений. Скачать торрент Проверен Легенды осени / Legends of the Fall (1994) BDRip | D

в форуме Драмы, Мелодрамы, Размер: 1.46 ГБ, Здоровье: 100%

Anonymous

0
49|2

48
269

25 окт 2014, 09:31

Anonymous Перейти к последнему сообщению

В этой теме нет новых непрочитанных сообщений. Скачать торрент Легенды Севера / Legends of the North (1994) DVDRip

в форуме Приключения, Размер: 1.46 ГБ, Здоровье: 0%

Anonymous

0
0|0

115
0

08 янв 2014, 13:30

Anonymous Перейти к последнему сообщению

В этой теме нет новых непрочитанных сообщений. Скачать торрент Проверен Grey heaven fall - Cерые небеса осени [2011, Black/Death Metal, HDRip]

в форуме Концерты (HD-Video), Размер: 365.48 МБ, Здоровье: 100%

Anonymous

0
1|0

7
0

23 окт 2016, 14:49

Anonymous Перейти к последнему сообщению

В этой теме нет новых непрочитанных сообщений. Скачать торрент Проверен Легенды Чимы / Legends of Chima [01-26 из 26] (2013) WEB-DLRip | D

в форуме Зарубежные мультфильмы, Размер: 8.9 ГБ, Здоровье: 100%

Anonymous

0
20|9

65
92

25 авг 2014, 20:03

Anonymous Перейти к последнему сообщению

В этой теме нет новых непрочитанных сообщений. Скачать торрент Проверен Пеле: Рождение легенды / Pelé: Birth of a Legend (2016) BDRip 1080p | iTunes

в форуме 720p | 1080p, Размер: 9.61 ГБ, Здоровье: 100%

Гость

0
351|51

197
1393

06 авг 2016, 21:16

Гость Перейти к последнему сообщению



Сейчас этот форум просматривают: нет зарегистрированных пользователей и гости: 4


Вы не можете начинать темы
Вы не можете отвечать на сообщения
Вы не можете редактировать свои сообщения
Вы не можете удалять свои сообщения
Вы не можете добавлять вложения

Перейти:  

!ВНИМАНИЕ!
 Ресурс не предоставляет электронные версии произведений, а занимается лишь коллекционированием и каталогизацией ссылок, присылаемых и публикуемых на форуме нашими читателями. Если вы являетесь правообладателем какого-либо представленного материала и не желаете чтобы ссылка на него находилась в нашем каталоге, свяжитесь с нами и мы незамедлительно удалим её. Файлы для обмена на трекере предоставлены пользователями сайта, и администрация не несёт ответственности за их содержание. Просьба не заливать файлы, защищенные авторскими правами, а также файлы нелегального содержания!