На всех торрентах на трекере установлена скидка на скачивание в размере 100 процентов(а).
 Возможность скачивания торрента НЕ зависит от ограничений при низком ратио, низком аплоаде, требуемом ратио или требуемом аплоаде.


Начать новую тему Ответить на тему
Статистика раздачи
Размер: 6.14 ГБ | Добавлен: 20 окт 2014, 17:17 | Скачали: 1
Сидеров: 891  [0 байт/сек]    Личеров: 90  [0 байт/сек]
Пред. тема | След. тема 

Автор
Сообщение

СообщениеДобавлено: 20 окт 2014, 17:17 

Год выпуска: 2014
Производство: Россия, Продюсерский Центр Андрея Кончаловского
Жанр: Драма

Режиссер: Андрей Кончаловский
Актеры: Алексей Тряпицын, Ирина Ермолова, Тимур Бондаренко, Виктор Колобов, Виктор Березин, Татьяна Силич, Ирина Силич, Юрий Панфилов, Николай Капустин, Сергей Юрьев, Валентина Ананьина, Любовь Скорина

Описание фильма:
Во многих деревнях России из-за их удаленности от городов и бездорожья люди живут как бы вне государства. В таких местах они практически предоставлены сами себе. Зачастую единственным представителем государства в подобных краях становится почтальон. Он — главное связующее звено между немногочисленными жителями заброшенных деревень и цивилизацией. Один из таких почтальонов станет главным героем картины.

Перевод: Не требуется (русский)
Субтитры: Отсутствуют



Возраст: 18+

Дата российской премьеры: 19 октября 2014

Продолжительность: 01:31:21
Качество видео: HDTV

Видеокодек: MPEG-4 AVC/H.264
Битрейт видео: 8756 kb/s
Размер кадра: 1920x1080
Аудиокодек: AC3 5.1
Битрейт аудио: 384 kb/s
Код:
Код:
Общее
Идентификатор                            : 1 (0x1)
Полное имя                               : D:\Раздачи\Белые.ночи.почтальона.Алексея.Тряпицына.2014.HDTV.1080i.NNM-CLUB.ts
Формат                                   : MPEG-TS
Размер файла                             : 6,14 Гбайт
Продолжительность                        : 1 ч. 31 м.
Режим общего битрейта                    : Переменный
Общий поток                              : 9619 Кбит/сек

Видео
Идентификатор                            : 4121 (0x1019)
Идентификатор меню                       : 1 (0x1)
Формат                                   : AVC
Формат/Информация                        : Advanced Video Codec
Профиль формата                          :
Параметр CABAC формата                   : Да
Параметр ReFrames формата                : 3 кадра
Идентификатор кодека                     : 27
Продолжительность                        : 1 ч. 31 м.
Битрейт                                  : 8756 Кбит/сек
Ширина                                   : 1920 пикселей
Высота                                   : 1080 пикселей
Соотношение сторон                       : 16:9
Частота кадров                           : 25,000 кадров/сек
Стандарт вещания                         : Component
Цветовое пространство                    : YUV
Субдискретизация насыщенности            : 4:2:0
Битовая глубина                          : 8 бит
Тип развёртки                            : Чересстрочная
Порядок развёртки                        : Верхнее поле первое
Бит/(Пиксели*Кадры)                      : 0.169
Размер потока                            : 5,59 Гбайт (91%)
Основные цвета                           : BT.709
Характеристики трансфера                 : BT.709
Коэффициенты матрицы                     : BT.709

Аудио
Идентификатор                            : 4125 (0x101D)
Идентификатор меню                       : 1 (0x1)
Формат                                   : AC-3
Формат/Информация                        : Audio Coding 3
Расширение режима                        : CM (complete main)
Параметр Endianness формата              : Big
Идентификатор кодека                     : 6
Продолжительность                        : 1 ч. 31 м.
Вид битрейта                             : Постоянный
Битрейт                                  : 384 Кбит/сек
Каналы                                   : 6 каналов
Расположение каналов                     : Front: L C R, Side: L R, LFE
Частота                                  : 48,0 КГц
Битовая глубина                          : 16 бит
Метод сжатия                             : С потерями
Размер потока                            : 251 Мбайт (4%)
Язык                                     : Russian
Скриншоты:
загрузка...
Правила, инструкции, FAQ!!!
Торрент  Добавлен [20 окт 2014, 17:17] Скачать торрент
Скачать торрент
[ Размер 31.52 КБ / Просмотров 20 ]

Статус
Проверен 
 
Размер  6.14 ГБ
Приватный: Нет (DHT включён)
.torrent скачан  1
Как залить торрент? | Как скачать Torrent? | Как смотреть и слушать онлайн?  


     Отправить личное сообщение
   
Страница 1 из 1
Показать сообщения за:  Поле сортировки  
Начать новую тему Ответить на тему

   Похожие торренты   Автор   Ответы   Просмотры   Последнее сообщение 
В этой теме нет новых непрочитанных сообщений. Скачать торрент Проверен Белые ночи почтальона Алексея Тряпицына (2014) HDTVRip

в форуме Драмы, Мелодрамы, Размер: 1.28 ГБ, Здоровье: 100%

Anonymous

0
498|43

42
1

20 окт 2014, 16:57

Anonymous Перейти к последнему сообщению

В этой теме нет новых непрочитанных сообщений. Скачать торрент Проверен Белые ночи почтальона Алексея Тряпицына (2014) HDTVRip [720p]

в форуме 720p | 1080p, Размер: 2.43 ГБ, Здоровье: 100%

Anonymous

0
46|17

30
0

20 окт 2014, 17:23

Anonymous Перейти к последнему сообщению

В этой теме нет новых непрочитанных сообщений. Скачать торрент Проверен Спокойной ночи, малыши! (2015) HDTV [1080i] (выпуск 1-3 из ?) (Обновляемая)

в форуме Развивающее Видео для детей, Размер: 1.69 ГБ, Здоровье: 100%

Гость

0
5|1

32
1

01 дек 2015, 00:09

Гость Перейти к последнему сообщению

В этой теме нет новых непрочитанных сообщений. Скачать торрент Проверен (Шансон) Гоша - Белые ночи - 2005, MP3, 192 kbps

в форуме Шансон|Авторская песня, Размер: 53.89 МБ, Здоровье: 0%

Anonymous

0
0|0

0
0

05 ноя 2016, 16:44

Anonymous Перейти к последнему сообщению

В этой теме нет новых непрочитанных сообщений. Скачать торрент Проверен (Шансон) Владимир Шишов - Белые ночи - 2005, MP3, 320 kbps

в форуме Шансон|Авторская песня, Размер: 128.78 МБ, Здоровье: 0%

Anonymous

0
0|0

0
0

05 ноя 2016, 16:57

Anonymous Перейти к последнему сообщению



Сейчас этот форум просматривают: нет зарегистрированных пользователей и гости: 1


Вы не можете начинать темы
Вы не можете отвечать на сообщения
Вы не можете редактировать свои сообщения
Вы не можете удалять свои сообщения
Вы не можете добавлять вложения

Перейти:  

!ВНИМАНИЕ!
 Ресурс не предоставляет электронные версии произведений, а занимается лишь коллекционированием и каталогизацией ссылок, присылаемых и публикуемых на форуме нашими читателями. Если вы являетесь правообладателем какого-либо представленного материала и не желаете чтобы ссылка на него находилась в нашем каталоге, свяжитесь с нами и мы незамедлительно удалим её. Файлы для обмена на трекере предоставлены пользователями сайта, и администрация не несёт ответственности за их содержание. Просьба не заливать файлы, защищенные авторскими правами, а также файлы нелегального содержания!