На всех торрентах на трекере установлена скидка на скачивание в размере 100 процентов(а).
 Возможность скачивания торрента НЕ зависит от ограничений при низком ратио, низком аплоаде, требуемом ратио или требуемом аплоаде.


Начать новую тему Ответить на тему
Статистика раздачи
Размер: 4.36 ГБ | Добавлен: 18 мар 2013, 21:15 | Скачали: 0
Сидеров: 0  [0 байт/сек]    Личеров: 0  [0 байт/сек]
Пред. тема | След. тема 

Автор
Сообщение

СообщениеДобавлено: 18 мар 2013, 21:15 

Название: Восстание планеты обезьян
Оригинальное название: Rise of the Planet of the Apes
Год выхода: 2010
Жанр: фантастика, боевик, триллер, драма
Режиссер: Руперт Уайатт

В фильме снимались: Джеймс Франко, Фрида Пинто, Джон Литгоу, Брайан Кокс, Том Фелтон, Дэвид Ойелоуо, Тайлер Лэбин, Джэми Харрис, Дэвид Хьюлетт, Ти Олссон и др.

Вкратце:
Действие фильма происходит в современном Сан-Франциско и строится вокруг ученого, генетические эксперименты которого привели к возникновению высокоразвитого интеллекта у обезьян. Приматы, осознав свое подчиненное положение, поднимают восстание и лишают человека звания царя природы.



Страна: США
Продолжительность: 01:44:57
Перевод: Дубляж

Формат: mkv
Кодек: H264
Качество: BDRip 1080p
Видео: 1920x816, 5508 Kbps, 23.976 fps
Звук: 48 kHz, AC3, 6c, 448 kbps
Субтитры: Русские, Английские





Общее
Формат : Matroska
Версия формата : Version 2
Размер файла : 4,36 Гбайт
Продолжительность : 1 ч. 44 м.
Общий поток : 5947 Кбит/сек
Название фильма : Rise of the Planet of the Apes (2011) BDRip 1080p от Dimok
Дата кодирования : UTC 2011-12-28 08:11:26
Программа кодирования : mkvmerge v5.2.0 ('I can't explain') built on Dec 18 2011 18:12:03
Библиотека кодирования : libebml v1.2.3 + libmatroska v1.3.0

Видео
Идентификатор : 1
Формат : AVC
Формат/Информация : Advanced Video Codec
Профиль формата : High@L4.1
Параметр CABAC формата : Да
Параметр ReFrames формата : 5 кадров
Идентификатор кодека : V_MPEG4/ISO/AVC
Продолжительность : 1 ч. 44 м.
Битрейт : 5508 Кбит/сек
Ширина : 1920 пикселей
Высота : 816 пикселей
Соотношение сторон : 2,35:1
Частота кадров : 23,976 кадра/сек
Цветовое пространство : YUV
Субдискретизация насыщенности : 4:2:0
Битовая глубина : 8 бит
Тип развёртки : Прогрессивная
Бит/(Пиксели*Кадры) : 0.147
Размер потока : 3,94 Гбайт (90%)
Библиотека кодирования : x264 core 92 r1510 33d382a
Настройки программы : cabac=1 / ref=5 / deblock=1:0:0 / analyse=0x3:0x133 / me=umh / subme=10 / psy=1 / psy_rd=1.00:0.10 / mixed_ref=1 / me_range=32 / chroma_me=1 / trellis=2 / 8x8dct=1 / cqm=0 / deadzone=21,11 / fast_pskip=0 / chroma_qp_offset=-3 / threads=6 / sliced_threads=0 / nr=0 / decimate=1 / interlaced=0 / constrained_intra=0 / bframes=6 / b_pyramid=2 / b_adapt=2 / b_bias=0 / direct=3 / wpredb=1 / wpredp=2 / keyint=240 / keyint_min=24 / scenecut=40 / intra_refresh=0 / rc_lookahead=60 / rc=2pass / mbtree=1 / bitrate=5508 / ratetol=1.0 / qcomp=0.60 / qpmin=10 / qpmax=51 / qpstep=4 / cplxblur=20.0 / qblur=0.5 / ip_ratio=1.40 / aq=1:1.00
Язык : English

Аудио
Идентификатор : 2
Формат : AC-3
Формат/Информация : Audio Coding 3
Расширение режима : CM (complete main)
Идентификатор кодека : A_AC3
Продолжительность : 1 ч. 44 м.
Вид битрейта : Постоянный
Битрейт : 448 Кбит/сек
Каналы : 6 каналов
Расположение каналов : Front: L C R, Side: L R, LFE
Частота : 48,0 КГц
Битовая глубина : 16 бит
Метод сжатия : С потерями
Размер потока : 336 Мбайт (8%)
Заголовок : Дубляж
Язык : Russian

Текст #1
Идентификатор : 3
Формат : UTF-8
Идентификатор кодека : S_TEXT/UTF8
Идентификатор кодека/Информация : UTF-8 Plain Text
Заголовок : Full
Язык : Russian

Текст #2
Идентификатор : 4
Формат : UTF-8
Идентификатор кодека : S_TEXT/UTF8
Идентификатор кодека/Информация : UTF-8 Plain Text
Язык : English
загрузка...
Правила, инструкции, FAQ!!!
Торрент  Добавлен [18 мар 2013, 21:15] Скачать торрент
Скачать торрент
[ Размер 22.23 КБ / Просмотров 7 ]

Статус  
 
Размер  4.36 ГБ
Приватный: Нет (DHT включён)
.torrent скачан  0
Как залить торрент? | Как скачать Torrent? | Как смотреть и слушать онлайн?  


     Отправить личное сообщение
   
Страница 1 из 1
Показать сообщения за:  Поле сортировки  
Начать новую тему Ответить на тему

   Похожие торренты   Автор   Ответы   Просмотры   Последнее сообщение 
В этой теме нет новых непрочитанных сообщений. Скачать торрент Планета обезьян / Planet of the Apes (Тим Бертон / Tim Burton) [2001 г., Фантастика, Приключения, HDRip] Dub

в форуме Фантастика, Фэнтези, Размер: 743.14 МБ, Здоровье: 100%

Anonymous

0
56|19

484
0

22 апр 2014, 11:41

Anonymous Перейти к последнему сообщению

В этой теме нет новых непрочитанных сообщений. Планета обезьян: Революция / Dawn of the Planet of the Apes (2014) WEB-DL 1080p | Чистый звук

в форуме Новинки кино, Размер: 5.06 ГБ, Здоровье: 100%

Anonymous

0
7|1

1688
2

29 окт 2014, 23:54

Anonymous Перейти к последнему сообщению

В этой теме нет новых непрочитанных сообщений. Скачать торрент Проверен Планета обезьян: Революция / Dawn of the Planet of the Apes (2014) BDRip [576p] iPad

в форуме Фильмы для iPod, iPhone, iPad, Размер: 2.31 ГБ, Здоровье: 100%

Гость

0
1|0

603
0

12 дек 2014, 22:53

Гость Перейти к последнему сообщению

В этой теме нет новых непрочитанных сообщений. Планета обезьян: Революция / Dawn of the Planet of the Apes (2014) WEB-DL 720p | Чистый звук

в форуме Новинки кино, Размер: 4.54 ГБ, Здоровье: 0%

Anonymous

0
0|0

1295
1

29 окт 2014, 14:42

Anonymous Перейти к последнему сообщению

В этой теме нет новых непрочитанных сообщений. Планета обезьян: Революция / Dawn of the Planet of the Apes (2014) WEB-DLRip | Чистый звук

в форуме Новинки кино, Размер: 1.46 ГБ, Здоровье: 100%

Anonymous

0
1|1

1371
3

29 окт 2014, 14:44

Anonymous Перейти к последнему сообщению



Сейчас этот форум просматривают: нет зарегистрированных пользователей и гости: 2


Вы не можете начинать темы
Вы не можете отвечать на сообщения
Вы не можете редактировать свои сообщения
Вы не можете удалять свои сообщения
Вы не можете добавлять вложения

Перейти:  

!ВНИМАНИЕ!
 Ресурс не предоставляет электронные версии произведений, а занимается лишь коллекционированием и каталогизацией ссылок, присылаемых и публикуемых на форуме нашими читателями. Если вы являетесь правообладателем какого-либо представленного материала и не желаете чтобы ссылка на него находилась в нашем каталоге, свяжитесь с нами и мы незамедлительно удалим её. Файлы для обмена на трекере предоставлены пользователями сайта, и администрация не несёт ответственности за их содержание. Просьба не заливать файлы, защищенные авторскими правами, а также файлы нелегального содержания!