На всех торрентах на трекере установлена скидка на скачивание в размере 100 процентов(а).
 Возможность скачивания торрента НЕ зависит от ограничений при низком ратио, низком аплоаде, требуемом ратио или требуемом аплоаде.


Начать новую тему Ответить на тему
Статистика раздачи
Размер: 4.44 ГБ | Добавлен: 04 окт 2014, 20:50 | Скачали: 2
Сидеров: 41  [0 байт/сек]    Личеров: 4  [0 байт/сек]
Пред. тема | След. тема 

Автор
Сообщение

СообщениеДобавлено: 04 окт 2014, 20:50 

Год выпуска: 2002
Жанр: Фэнтези, Драма, Триллер
Производство: США, Германия

Описание фильма:
Муж и жена, Джо и Эмили Дарроу трудятся докторами в большой клинике Чикаго. Эмили работает детским онкологом, а Джо руководит приемным покоем. Несмотря на то, что Эмили беременна, она решает поехать в Венесуэллу с гуманитарной миссией, где трагически погибает.
После смерти жены с Джо начинают происходить необъяснимые события. Больные дети, которых лечила Эмили, утверждают, что она является им в видениях, пытаясь сообщить что-то важное. Загадочные знаки и пугающие послания неотступно преследуют Джо, и вскоре он убеждает себя, что сумеет разгадать их тайный смысл, только если отправится туда, где его жена рассталась с жизнью…

Режиссер: Том Шэдьяк

Актеры: Кевин Костнер, Сузанна Томпсон, Джо Мортон, Рон Рифкин, Кэти Бейтс, Линда Хант

Продолжительность: 01:44:15
Качество видео: HDTVRip
Перевод: Дублированный, многоголосый закадровый



Дата мировой премьеры: 18.02.02

Видеокодек: MPEG-4 AVC/H.264
Битрейт видео: ~5150 kbps
Размер кадра: 1280x544
Аудио 1: AC3, 6 ch, 448 Кбит/с - Русский (дублированный)
Аудио 2: AC3, 6 ch, 384 Кбит/с - Русский (многоголосый закадровый)
Уникальный идентификатор : 198652182899984594763871383245353278084 (0x957304CD39CD58C1A2F594AB68CE5A84)
Полное имя : I:\Фантастика\Стрекоза\Стрекоза_Dragonfly.mkv
Формат : Matroska
Версия формата : Version 2
Размер файла : 4,44 Гбайт
Продолжительность : 1 ч. 44 м.
Общий поток : 6103 Кбит/сек
Дата кодирования : UTC 2014-09-27 02:57:08
Программа кодирования : mkvmerge v6.2.0 ('Promised Land') built on Apr 28 2013 12:22:01
Библиотека кодирования : libebml v1.3.0 + libmatroska v1.4.0

Видео
Идентификатор : 1
Формат : AVC
Формат/Информация : Advanced Video Codec
Профиль формата :
Параметр CABAC формата : Да
Параметр ReFrames формата : 6 кадров
Идентификатор кодека : V_MPEG4/ISO/AVC
Продолжительность : 1 ч. 44 м.
Битрейт : 5150 Кбит/сек
Ширина : 1280 пикселей
Высота : 544 пикселя
Соотношение сторон : 2,35:1
Режим частоты кадров : Постоянный
Частота кадров : 23,976 кадра/сек
Цветовое пространство : YUV
Субдискретизация насыщенности : 4:2:0
Битовая глубина : 8 бит
Тип развёртки : Прогрессивная
Бит/(Пиксели*Кадры) : 0.308
Размер потока : 3,75 Гбайт (84%)
Заголовок : Стрекоза_Dragonfly (Topmost)
Библиотека кодирования : x264 core 57 svn-709C
Настройки программы : cabac=1 / ref=3 / deblock=1:-2:-1 / analyse=0x3:0x113 / me=umh / fpel_cmp=sad / subme=6 / me-prepass=0 / brdo=0 / mixed_ref=0 / me_range=12 / chroma_me=1 / trellis=1 / 8x8dct=1 / cqm=2 / deadzone=21,11 / chroma_qp_offset=0 / threads=3 / nr=0 / decimate=1 / mbaff=0 / bframes=4 / b_pyramid=1 / b_adapt=1 / b_bias=0 / direct=3 / wpredb=1 / bime=0 / keyint=250 / keyint_min=25 / scenecut=40(pre) / rc=crf / crf=18.0 / rceq='blurCplx^(1-qComp)' / qcomp=0.60 / qpmin=10 / qpmax=51 / qpstep=4 / ip_ratio=1.40 / pb_ratio=1.30
Язык : Russian
Default : Да
Forced : Нет

Аудио #1
Идентификатор : 2
Формат : AC-3
Формат/Информация : Audio Coding 3
Расширение режима : CM (complete main)
Параметр Endianness формата : Big
Идентификатор кодека : A_AC3
Продолжительность : 1 ч. 44 м.
Вид битрейта : Постоянный
Битрейт : 448 Кбит/сек
Каналы : 6 каналов
Расположение каналов : Front: L C R, Side: L R, LFE
Частота : 48,0 КГц
Битовая глубина : 16 бит
Метод сжатия : С потерями
Размер потока : 334 Мбайт (7%)
Заголовок : Дублированный
Язык : Russian
Default : Нет
Forced : Нет

Аудио #2
Идентификатор : 3
Формат : AC-3
Формат/Информация : Audio Coding 3
Расширение режима : CM (complete main)
Параметр Endianness формата : Big
Идентификатор кодека : A_AC3
Продолжительность : 1 ч. 44 м.
Вид битрейта : Постоянный
Битрейт : 384 Кбит/сек
Каналы : 6 каналов
Расположение каналов : Front: L C R, Side: L R, LFE
Частота : 48,0 КГц
Битовая глубина : 16 бит
Метод сжатия : С потерями
Размер потока : 286 Мбайт (6%)
Заголовок : Многоголосый закадровый
Язык : Russian
Default : Да
Forced : Нет
Скриншоты:

загрузка...
Правила, инструкции, FAQ!!!
Торрент  Добавлен [04 окт 2014, 20:50] Скачать торрент
Скачать торрент
[ Размер 11.89 КБ / Просмотров 29 ]

Статус
Проверен 
 
Размер  4.44 ГБ
Приватный: Нет (DHT включён)
.torrent скачан  2
Как залить торрент? | Как скачать Torrent? | Как смотреть и слушать онлайн?  


     Отправить личное сообщение
   
Страница 1 из 1
Показать сообщения за:  Поле сортировки  
Начать новую тему Ответить на тему

   Похожие торренты   Автор   Ответы   Просмотры   Последнее сообщение 
В этой теме нет новых непрочитанных сообщений. Скачать торрент Проверен Diana Gabaldon/Диана Гэблдон - Dragonfly in Amber/Стрекоза в янтаре [1992, RTF, RUS]

в форуме Женский роман, Размер: 11.37 МБ, Здоровье: 100%

Anonymous

0
16|5

22
1

28 авг 2016, 21:08

Anonymous Перейти к последнему сообщению

В этой теме нет новых непрочитанных сообщений. Скачать торрент Проверен Стрекоза / Dragonflyr (2002) HDTVRip [576p] iPad

в форуме Фильмы для iPod, iPhone, iPad, Размер: 2.39 ГБ, Здоровье: 100%

Anonymous

0
2|1

34
0

13 дек 2014, 00:12

Anonymous Перейти к последнему сообщению

В этой теме нет новых непрочитанных сообщений. Скачать торрент Проверен (Progressive rock) Dragonfly - Dragonfly - 1982, APE (image + .cue + scans), lossless

в форуме Progressive & Art-Rock, Размер: 351.74 МБ, Здоровье: 0%

Anonymous

0
0|0

1
0

30 авг 2016, 00:56

Anonymous Перейти к последнему сообщению

В этой теме нет новых непрочитанных сообщений. Скачать торрент Проверен (Heavy Psychedelic Rock) Dragonfly - Dragonfly - 1968 (2004), FLAC (tracks+.cue), lossless

в форуме Progressive & Art-Rock, Размер: 244.83 МБ, Здоровье: 100%

Anonymous

0
3|1

7
0

02 сен 2016, 13:27

Anonymous Перейти к последнему сообщению

В этой теме нет новых непрочитанных сообщений. Скачать торрент Проверен (Sympho Prog Rock) Dragonfly - Dragonfly (1982) - 2007, FLAC (image+.cue), lossless

в форуме Progressive & Art-Rock, Размер: 417.36 МБ, Здоровье: 0%

Anonymous

0
0|0

2
0

30 авг 2016, 17:38

Anonymous Перейти к последнему сообщению



Сейчас этот форум просматривают: нет зарегистрированных пользователей и гости: 1


Вы не можете начинать темы
Вы не можете отвечать на сообщения
Вы не можете редактировать свои сообщения
Вы не можете удалять свои сообщения
Вы не можете добавлять вложения

Перейти:  

!ВНИМАНИЕ!
 Ресурс не предоставляет электронные версии произведений, а занимается лишь коллекционированием и каталогизацией ссылок, присылаемых и публикуемых на форуме нашими читателями. Если вы являетесь правообладателем какого-либо представленного материала и не желаете чтобы ссылка на него находилась в нашем каталоге, свяжитесь с нами и мы незамедлительно удалим её. Файлы для обмена на трекере предоставлены пользователями сайта, и администрация не несёт ответственности за их содержание. Просьба не заливать файлы, защищенные авторскими правами, а также файлы нелегального содержания!