На всех торрентах на трекере установлена скидка на скачивание в размере 100 процентов(а).
 Возможность скачивания торрента НЕ зависит от ограничений при низком ратио, низком аплоаде, требуемом ратио или требуемом аплоаде.


Начать новую тему Ответить на тему
Статистика раздачи
Размер: 9.3 ГБ | Добавлен: 04 окт 2014, 13:09 | Скачали: 117
Сидеров: 22  [0 байт/сек]    Личеров: 2  [0 байт/сек]
Пред. тема | След. тема 

Автор
Сообщение

СообщениеДобавлено: 04 окт 2014, 13:09 

Год выпуска: 2002
Страна: США, Великобритания, Люксембург
Жанр: Ужасы, фэнтези, боевик, триллер, приключения
Продолжительность: 01:44:52
Перевод: Профессиональный многоголосый, профессиональный двухголосый, авторский
Субтитры: русские, английские (для слабослышащих) (все отдельно)

Режиссёр: Нил Маршалл

В ролях: Шон Пертуи, Кевин МакКидд, Эмма Клисби, Лиам Каннингэм, Томас Локйер, Даррен Морфитт, Крис Робсон, Лесли Симпсон, Тина Ландини, Крэйг Конуэй

Описание: Отряд британских солдат под командованием сержанта Уэллса отправился на боевое задание в дикие леса горной Шотландии. Но то что началось, как обычные армейские учения, превратилось в настоящий кошмар. Прибыв на секретную военную базу, солдаты обнаружили истекающего кровью капитана Райана и растерзанные останки его подчинённых…



Качество: BDRip 720p
Формат: MKV
Видео кодек: H.264
Аудио кодек: AC3
Видео: 1280x700, 6380 Кбит/с, 23,976 кадра/с, 0.297 bpp
Аудио 1: русский, AC3, 448 kbps, 6 ch, 48 kHz [профессиональный многоголосый, DVD Magic, R5]
Аудио 2: русский, AC3, 448 kbps, 6 ch, 48 kHz [авторский, Андрей Гаврилов]
Аудио 3: русский, AC3, 448 kbps, 6 ch, 48 kHz [авторский, Дмитрий Пучков - Гоблин, с ненормативной лексикой]

Отдельные файлы
Аудио: русский, DTS, 768 kbps, 6 ch, 48 kHz [профессиональный многоголосый, DVD Magic, R5]
Аудио: русский, AC3, 384 kbps, 6 ch, 48 kHz [профессиональный многоголосый]
Аудио: русский, AC3, 192 kbps, 2 ch, 48 kHz [профессиональный двухголосый, Швецов с дамой, с ненормативной лексикой]
Аудио: русский, DTS, 1509 kbps, 6 ch, 48 kHz [авторский, Андрей Гаврилов]
Аудио: русский, DTS, 1509 kbps, 6 ch, 48 kHz [авторский, Дмитрий Пучков - Гоблин, с ненормативной лексикой]
Аудио: английский, AC3, 448 kbps, 6 ch, 48 kHz [оригинал]

Имеются неименованные главы/чаптеры.

Общее
Полное имя : D:VideoPsy-voiny.2002.BDRip.720pPsy-voiny.2002.AVO.rus.А.Гаврилов.dts
Формат : DTS
Формат/Информация : Digital Theater Systems
Размер файла : 1,11 Гбайт
Продолжительность : 1 ч. 44 м.
Режим общего битрейта : Постоянный
Общий поток : 1509 Кбит/сек

Аудио
Формат : DTS
Формат/Информация : Digital Theater Systems
Режим : 16
Параметр Endianness формата : Big
Продолжительность : 1 ч. 44 м.
Вид битрейта : Постоянный
Битрейт : 1509 Кбит/сек
Каналы : 6 каналов
Расположение каналов : Front: L C R, Side: L R, LFE
Частота : 48,0 КГц
Битовая глубина : 24 бит
Метод сжатия : С потерями
Размер потока : 1,11 Гбайт (100%)

Общее
Полное имя : D:VideoPsy-voiny.2002.BDRip.720pPsy-voiny.2002.AVO.rus.Гоблин, ненорматив.dts
Формат : DTS
Формат/Информация : Digital Theater Systems
Размер файла : 1,11 Гбайт
Продолжительность : 1 ч. 44 м.
Режим общего битрейта : Постоянный
Общий поток : 1509 Кбит/сек

Аудио
Формат : DTS
Формат/Информация : Digital Theater Systems
Режим : 16
Параметр Endianness формата : Big
Продолжительность : 1 ч. 44 м.
Вид битрейта : Постоянный
Битрейт : 1509 Кбит/сек
Каналы : 6 каналов
Расположение каналов : Front: L C R, Side: L R, LFE
Частота : 48,0 КГц
Битовая глубина : 24 бит
Метод сжатия : С потерями
Размер потока : 1,11 Гбайт (100%)

Общее
Уникальный идентификатор : 233366066250632422622915958165948404324 (0xAF90AB64535090D4A5B6EA278F311264)
Полное имя : D:VideoPsy-voiny.2002.BDRip.720pPsy-voiny.2002.BDRip.720p.mkv
Формат : Matroska
Версия формата : Version 4 / Version 2
Размер файла : 5,77 Гбайт
Продолжительность : 1 ч. 44 м.
Общий поток : 7880 Кбит/сек
Дата кодирования : UTC 2014-10-04 06:53:23
Программа кодирования : mkvmerge v6.9.1 ('Blue Panther') 64bit built on Apr 18 2014 18:23:38
Библиотека кодирования : libebml v1.3.0 + libmatroska v1.4.1

Видео
Идентификатор : 1
Формат : AVC
Формат/Информация : Advanced Video Codec
Профиль формата : High@L4.1
Параметр CABAC формата : Да
Параметр ReFrames формата : 9 кадров
Идентификатор кодека : V_MPEG4/ISO/AVC
Продолжительность : 1 ч. 44 м.
Битрейт : 6380 Кбит/сек
Ширина : 1280 пикселей
Высота : 700 пикселей
Соотношение сторон : 1,85:1
Режим частоты кадров : Постоянный
Частота кадров : 23,976 кадра/сек
Цветовое пространство : YUV
Субдискретизация насыщенности : 4:2:0
Битовая глубина : 8 бит
Тип развёртки : Прогрессивная
Бит/(Пиксели*Кадры) : 0.297
Размер потока : 4,67 Гбайт (81%)
Заголовок : BDRip -- STarankov
Библиотека кодирования : x264 core 142 r2431 ac76440
Настройки программы : cabac=1 / ref=9 / deblock=1:-1:-1 / analyse=0x3:0x113 / me=umh / subme=10 / psy=1 / psy_rd=1.00:0.15 / mixed_ref=1 / me_range=32 / chroma_me=1 / trellis=2 / 8x8dct=1 / cqm=0 / deadzone=21,11 / fast_pskip=0 / chroma_qp_offset=-3 / threads=6 / lookahead_threads=1 / sliced_threads=0 / nr=0 / decimate=1 / interlaced=0 / bluray_compat=0 / constrained_intra=0 / bframes=8 / b_pyramid=2 / b_adapt=2 / b_bias=0 / direct=1 / weightb=1 / open_gop=0 / weightp=2 / keyint=230 / keyint_min=23 / scenecut=40 / intra_refresh=0 / rc_lookahead=40 / rc=crf / mbtree=0 / crf=19.0 / qcomp=0.60 / qpmin=0 / qpmax=69 / qpstep=4 / vbv_maxrate=40000 / vbv_bufsize=50000 / crf_max=0.0 / nal_hrd=none / filler=0 / ip_ratio=1.40 / pb_ratio=1.30 / aq=1:1.00
Язык : English
Default : Да
Forced : Нет

Аудио #1
Идентификатор : 2
Формат : AC-3
Формат/Информация : Audio Coding 3
Расширение режима : CM (complete main)
Параметр Endianness формата : Big
Идентификатор кодека : A_AC3
Продолжительность : 1 ч. 44 м.
Вид битрейта : Постоянный
Битрейт : 448 Кбит/сек
Каналы : 6 каналов
Расположение каналов : Front: L C R, Side: L R, LFE
Частота : 48,0 КГц
Битовая глубина : 16 бит
Метод сжатия : С потерями
Размер потока : 336 Мбайт (6%)
Заголовок : MVO (DVD Magic, R5)
Язык : Russian
Default : Да
Forced : Нет

Аудио #2
Идентификатор : 3
Формат : AC-3
Формат/Информация : Audio Coding 3
Расширение режима : CM (complete main)
Параметр Endianness формата : Big
Идентификатор кодека : A_AC3
Продолжительность : 1 ч. 44 м.
Вид битрейта : Постоянный
Битрейт : 448 Кбит/сек
Каналы : 6 каналов
Расположение каналов : Front: L C R, Side: L R, LFE
Частота : 48,0 КГц
Битовая глубина : 16 бит
Метод сжатия : С потерями
Размер потока : 336 Мбайт (6%)
Заголовок : AVO (Андрей Гаврилов)
Язык : Russian
Default : Нет
Forced : Нет

Аудио #3
Идентификатор : 4
Формат : AC-3
Формат/Информация : Audio Coding 3
Расширение режима : CM (complete main)
Параметр Endianness формата : Big
Идентификатор кодека : A_AC3
Продолжительность : 1 ч. 44 м.
Вид битрейта : Постоянный
Битрейт : 448 Кбит/сек
Каналы : 6 каналов
Расположение каналов : Front: L C R, Side: L R, LFE
Частота : 48,0 КГц
Битовая глубина : 16 бит
Метод сжатия : С потерями
Размер потока : 336 Мбайт (6%)
Заголовок : AVO (Дмитрий Пучков - Гоблин)
Язык : Russian
Default : Нет
Forced : Нет

Меню
00:00:00.000 : :Chapter 01
00:08:00.939 : :Chapter 02
00:12:33.586 : :Chapter 03
00:21:09.602 : :Chapter 04
00:24:01.772 : :Chapter 05
00:32:53.680 : :Chapter 06
00:40:17.373 : :Chapter 07
00:46:17.608 : :Chapter 08
00:52:48.873 : :Chapter 09
01:01:45.911 : :Chapter 10
01:13:26.360 : :Chapter 11
01:19:11.162 : :Chapter 12
01:27:13.979 : :Chapter 13
01:31:47.794 : :Chapter 14
01:35:47.158 : :Chapter 15
01:37:34.474 : :Chapter 16

Общее
Полное имя : D:VideoPsy-voiny.2002.BDRip.720pPsy-voiny.2002.DVO.rus.Швецов с дамой ненорматив.ac3
Формат : AC-3
Формат/Информация : Audio Coding 3
Размер файла : 144 Мбайт
Продолжительность : 1 ч. 44 м.
Режим общего битрейта : Постоянный
Общий поток : 192 Кбит/сек

Аудио
Формат : AC-3
Формат/Информация : Audio Coding 3
Расширение режима : CM (complete main)
Параметр Endianness формата : Big
Продолжительность : 1 ч. 44 м.
Вид битрейта : Постоянный
Битрейт : 192 Кбит/сек
Каналы : 2 канала
Расположение каналов : Front: L R
Частота : 48,0 КГц
Битовая глубина : 16 бит
Метод сжатия : С потерями
Размер потока : 144 Мбайт (100%)

Общее
Полное имя : D:VideoPsy-voiny.2002.BDRip.720pPsy-voiny.2002.eng.SDH.srt
Формат : SubRip
Размер файла : 89,4 Кбайт

Текст
Формат : SubRip
Метод сжатия : Без потерь

Общее
Полное имя : D:VideoPsy-voiny.2002.BDRip.720pPsy-voiny.2002.MVO.rus.ac3
Формат : AC-3
Формат/Информация : Audio Coding 3
Размер файла : 288 Мбайт
Продолжительность : 1 ч. 44 м.
Режим общего битрейта : Постоянный
Общий поток : 384 Кбит/сек

Аудио
Формат : AC-3
Формат/Информация : Audio Coding 3
Расширение режима : CM (complete main)
Параметр Endianness формата : Big
Продолжительность : 1 ч. 44 м.
Вид битрейта : Постоянный
Битрейт : 384 Кбит/сек
Каналы : 6 каналов
Расположение каналов : Front: L C R, Side: L R, LFE
Частота : 48,0 КГц
Битовая глубина : 16 бит
Метод сжатия : С потерями
Размер потока : 288 Мбайт (100%)

Общее
Полное имя : D:VideoPsy-voiny.2002.BDRip.720pPsy-voiny.2002.MVO.rus.DVD Magic, R5.dts
Формат : DTS
Формат/Информация : Digital Theater Systems
Размер файла : 576 Мбайт
Продолжительность : 1 ч. 44 м.
Режим общего битрейта : Постоянный
Общий поток : 768 Кбит/сек

Аудио
Формат : DTS
Формат/Информация : Digital Theater Systems
Режим : 16
Параметр Endianness формата : Big
Продолжительность : 1 ч. 44 м.
Вид битрейта : Постоянный
Битрейт : 768 Кбит/сек
Каналы : 6 каналов
Расположение каналов : Front: L C R, Side: L R, LFE
Частота : 48,0 КГц
Битовая глубина : 24 бит
Метод сжатия : С потерями
Размер потока : 576 Мбайт (100%)

Общее
Полное имя : D:VideoPsy-voiny.2002.BDRip.720pPsy-voiny.2002.Original.eng.ac3
Формат : AC-3
Формат/Информация : Audio Coding 3
Размер файла : 336 Мбайт
Продолжительность : 1 ч. 44 м.
Режим общего битрейта : Постоянный
Общий поток : 448 Кбит/сек

Аудио
Формат : AC-3
Формат/Информация : Audio Coding 3
Расширение режима : CM (complete main)
Параметр Endianness формата : Big
Продолжительность : 1 ч. 44 м.
Вид битрейта : Постоянный
Битрейт : 448 Кбит/сек
Каналы : 6 каналов
Расположение каналов : Front: L C R, Side: L R, LFE
Частота : 48,0 КГц
Битовая глубина : 16 бит
Метод сжатия : С потерями
Размер потока : 336 Мбайт (100%)

Общее
Полное имя : D:VideoPsy-voiny.2002.BDRip.720pPsy-voiny.2002.rus.srt
Формат : SubRip
Размер файла : 76,5 Кбайт

Текст
Формат : SubRip
Метод сжатия : Без потерь



загрузка...
Правила, инструкции, FAQ!!!
Торрент  Добавлен [04 окт 2014, 13:09] Скачать торрент
Скачать торрент
[ Размер 24.29 КБ / Просмотров 6 ]

Статус
Проверен 
 
Размер  9.3 ГБ
Приватный: Нет (DHT включён)
.torrent скачан  117
Как залить торрент? | Как скачать Torrent? | Как смотреть и слушать онлайн?  


     Отправить личное сообщение
   
Страница 1 из 1
Показать сообщения за:  Поле сортировки  
Начать новую тему Ответить на тему

   Похожие торренты   Автор   Ответы   Просмотры   Последнее сообщение 
В этой теме нет новых непрочитанных сообщений. Скачать торрент Псы-воины / Dog Soldiers (Нил Маршалл / Neil Marshall) [2002, ужасы, фэнтези, боевик, триллер, приключения, BDRip] MVO (R5) + AVO (Гоблин) + Original

в форуме Ужасы, Размер: 2.18 ГБ, Здоровье: 0%

Anonymous

0
0|0

57
0

22 апр 2014, 11:39

Anonymous Перейти к последнему сообщению

В этой теме нет новых непрочитанных сообщений. Скачать торрент Проверен Мы были солдатами / We were soldiers (2002) BDRip

в форуме Боевики, Размер: 2.91 ГБ, Здоровье: 100%

Anonymous

0
13|0

42
3

28 ноя 2014, 21:20

Anonymous Перейти к последнему сообщению

В этой теме нет новых непрочитанных сообщений. Скачать торрент Солдатики / Small Soldiers (1998) BDRip 720p | P, A

в форуме 720p | 1080p, Размер: 7.12 ГБ, Здоровье: 100%

Anonymous

0
3|0

25
27

24 мар 2014, 10:26

Anonymous Перейти к последнему сообщению

В этой теме нет новых непрочитанных сообщений. Скачать торрент Проверен Мы были солдатами / We Were Soldiers (2002) BDRip 1080р

в форуме 720p | 1080p, Размер: 6.54 ГБ, Здоровье: 100%

Anonymous

0
9|0

26
14

28 ноя 2014, 21:25

Anonymous Перейти к последнему сообщению

В этой теме нет новых непрочитанных сообщений. Скачать торрент Проверен Кошмар на улице Вязов 3: Воины сна / A Nightmare on Elm Street 3: Dream Warriors (1987) BDRip 720p

в форуме 720p | 1080p, Размер: 3.15 ГБ, Здоровье: 100%

Anonymous

0
6|0

34
207

17 авг 2014, 08:15

Anonymous Перейти к последнему сообщению



Сейчас этот форум просматривают: нет зарегистрированных пользователей и гости: 3


Вы не можете начинать темы
Вы не можете отвечать на сообщения
Вы не можете редактировать свои сообщения
Вы не можете удалять свои сообщения
Вы не можете добавлять вложения

Перейти:  

!ВНИМАНИЕ!
 Ресурс не предоставляет электронные версии произведений, а занимается лишь коллекционированием и каталогизацией ссылок, присылаемых и публикуемых на форуме нашими читателями. Если вы являетесь правообладателем какого-либо представленного материала и не желаете чтобы ссылка на него находилась в нашем каталоге, свяжитесь с нами и мы незамедлительно удалим её. Файлы для обмена на трекере предоставлены пользователями сайта, и администрация не несёт ответственности за их содержание. Просьба не заливать файлы, защищенные авторскими правами, а также файлы нелегального содержания!
cron