На всех торрентах на трекере установлена скидка на скачивание в размере 100 процентов(а).
 Возможность скачивания торрента НЕ зависит от ограничений при низком ратио, низком аплоаде, требуемом ратио или требуемом аплоаде.


Начать новую тему Ответить на тему
Статистика раздачи
Размер: 4.39 ГБ | Добавлен: 04 окт 2014, 00:12 | Скачали: 116
Сидеров: 12  [0 байт/сек]    Личеров: 1  [0 байт/сек]
Пред. тема | След. тема 

Автор
Сообщение

СообщениеДобавлено: 04 окт 2014, 00:12 

Название: Полиция
Оригинальное название: Police
Год выхода: 1985
Жанр: Драма, Криминал
Режиссер: Морис Пиала / Maurice Pialat
В ролях: Жерар Депардье / Gerard Depardieu, Софи Марсо / Sophie Marceau, Ришар Анконина / Richard Anconina, Паскаль Рокар / Pascale Rocard, Сандрин Боннэр / Sandrine Bonnaire, Франк Карои / Franck Karoui, Джонатан Лейна / Jonathan Leina, Жак Мато / Jacques Mathou, Бернар Фюзелье / Bernard Fuzellier, Меаачо Бентахар / Meaachou Bentahar, Янн Деде / Yann Dedet, Морис Пиала / Maurice Pialat

О фильме:
Инспектор полиции Луис Венсан Маньин не склонен к сантиментам - он груб, жесток и циничен. Расследуя дело о торговцах наркотиками из Туниса, он знакомится со странной и непредсказуемой девушкой Норией. На допросе, где они впервые встретились, Луису и в голову не могло прийти, что страсть, которая соединит их, смертельно опасна для жизни...

Страна: Франция
Студия: Gaumont, TF1 Films Production
Продолжительность: 01:53:53.056
Перевод: Профессиональный (двухголосый, закадровый) R5 Союз Видео


Кодек: h.264
Качество: BDRip 720p
Видео: 1200x720 (1.667), 24.000 fps, AVC, ~4918 Kbps, 0.237 bits/pixel
Звук:
Русский, 48.0 KHz, AC3, 1 ch, 192 Kbps
Французский, 48.0 KHz, AC3, 1 ch, 384 Kbps
Субтитры:
Французские, PGS
Английские, PGS

Общее
Уникальный идентификатор : 189066520292729498230525748070028414347 (0x8E3CE32585916C71B96D06C71B7C0D8B)
Полное имя : H:FilmsPolitsiya.1985.BDRip720p.mkv
Формат : Matroska
Версия формата : Version 4 / Version 2
Размер файла : 4,39 Гбайт
Продолжительность : 1 ч. 53 м.
Общий поток : 5521 Кбит/сек
Дата кодирования : UTC 2014-10-03 17:56:20
Программа кодирования : mkvmerge v7.2.0 ('On Every Street') 64bit built on Sep 13 2014 15:52:10
Библиотека кодирования : libebml v1.3.0 + libmatroska v1.4.1
DURATION : 01:52:22.000000000
NUMBER_OF_FRAMES : 2988
NUMBER_OF_BYTES : 10316689
_STATISTICS_WRITING_APP : mkvmerge v7.2.0 ('On Every Street') 64bit built on Sep 13 2014 15:52:10
_STATISTICS_WRITING_DATE_UTC : 2014-10-03 17:56:20
_STATISTICS_TAGS : BPS DURATION NUMBER_OF_FRAMES NUMBER_OF_BYTES

Видео
Идентификатор : 1
Формат : AVC
Формат/Информация : Advanced Video Codec
Профиль формата : High@L4.1
Параметр CABAC формата : Да
Параметр ReFrames формата : 9 кадров
Идентификатор кодека : V_MPEG4/ISO/AVC
Продолжительность : 1 ч. 53 м.
Битрейт : 4918 Кбит/сек
Ширина : 1200 пикселей
Высота : 720 пикселей
Соотношение сторон : 1,667
Режим частоты кадров : Постоянный
Частота кадров : 24,000 кадра/сек
Цветовое пространство : YUV
Субдискретизация насыщенности : 4:2:0
Битовая глубина : 8 бит
Тип развёртки : Прогрессивная
Бит/(Пиксели*Кадры) : 0.237
Размер потока : 3,85 Гбайт (88%)
Библиотека кодирования : x264 core 142 r2431 ac76440
Настройки программы : cabac=1 / ref=9 / deblock=1:-3:-3 / analyse=0x3:0x133 / me=umh / subme=10 / psy=1 / psy_rd=1.10:0.10 / mixed_ref=1 / me_range=32 / chroma_me=1 / trellis=2 / 8x8dct=1 / cqm=0 / deadzone=21,11 / fast_pskip=0 / chroma_qp_offset=-3 / threads=8 / lookahead_threads=2 / sliced_threads=0 / nr=0 / decimate=0 / interlaced=0 / bluray_compat=0 / constrained_intra=0 / bframes=13 / b_pyramid=2 / b_adapt=2 / b_bias=0 / direct=3 / weightb=1 / open_gop=0 / weightp=2 / keyint=240 / keyint_min=24 / scenecut=60 / intra_refresh=0 / rc_lookahead=60 / rc=2pass / mbtree=0 / bitrate=4918 / ratetol=1.0 / qcomp=0.60 / qpmin=0 / qpmax=69 / qpstep=4 / cplxblur=20.0 / qblur=0.5 / vbv_maxrate=50000 / vbv_bufsize=62500 / nal_hrd=none / filler=0 / ip_ratio=1.40 / pb_ratio=1.30 / aq=1:1.00
Default : Нет
Forced : Нет
Основные цвета : BT.709
Характеристики трансфера : BT.709
Коэффициенты матрицы : BT.709
DURATION : 01:53:53.042000000
NUMBER_OF_FRAMES : 163993
NUMBER_OF_BYTES : 4199780739
_STATISTICS_WRITING_APP : mkvmerge v7.2.0 ('On Every Street') 64bit built on Sep 13 2014 15:52:10
_STATISTICS_WRITING_DATE_UTC : 2014-10-03 17:56:20
_STATISTICS_TAGS : BPS DURATION NUMBER_OF_FRAMES NUMBER_OF_BYTES

Аудио #1
Идентификатор : 2
Формат : AC-3
Формат/Информация : Audio Coding 3
Расширение режима : CM (complete main)
Параметр Endianness формата : Big
Идентификатор кодека : A_AC3
Продолжительность : 1 ч. 53 м.
Вид битрейта : Постоянный
Битрейт : 192 Кбит/сек
Каналы : 1 канал
Расположение каналов : Front: C
Частота : 48,0 КГц
Битовая глубина : 16 бит
Метод сжатия : С потерями
Размер потока : 156 Мбайт (3%)
Язык : Russian
Default : Да
Forced : Нет

Аудио #2
Идентификатор : 3
Формат : AC-3
Формат/Информация : Audio Coding 3
Расширение режима : CM (complete main)
Параметр Endianness формата : Big
Идентификатор кодека : A_AC3
Продолжительность : 1 ч. 53 м.
Вид битрейта : Постоянный
Битрейт : 384 Кбит/сек
Каналы : 1 канал
Расположение каналов : Front: C
Частота : 48,0 КГц
Битовая глубина : 16 бит
Метод сжатия : С потерями
Размер потока : 313 Мбайт (7%)
Язык : French
Default : Нет
Forced : Нет

Текст #1
Идентификатор : 4
Формат : PGS
Режим смешивания : zlib
Идентификатор кодека : S_HDMV/PGS
Идентификатор кодека/Информация : The same subtitle format used on BDs/HD-DVDs
Язык : French
Default : Нет
Forced : Нет

Текст #2
Идентификатор : 5
Формат : PGS
Режим смешивания : zlib
Идентификатор кодека : S_HDMV/PGS
Идентификатор кодека/Информация : The same subtitle format used on BDs/HD-DVDs
Язык : English
Default : Нет
Forced : Нет

Меню
00:00:00.000 : en:00:00:00.000
00:10:31.708 : en:00:10:31.708
00:20:42.125 : en:00:20:42.125
00:24:44.667 : en:00:24:44.667
00:32:03.042 : en:00:32:03.042
00:43:10.458 : en:00:43:10.458
00:53:08.208 : en:00:53:08.208
01:04:34.458 : en:01:04:34.458
01:11:06.417 : en:01:11:06.417
01:18:29.083 : en:01:18:29.083
01:33:29.792 : en:01:33:29.792
01:42:38.833 : en:01:42:38.833


frame I:765 Avg QP:17.02 size:114200
frame P:31462 Avg QP:19.89 size: 52975
frame B:131766 Avg QP:21.50 size: 18561



BDRip720p
Blu Ray


Релиз от: Temperest
загрузка...
Правила, инструкции, FAQ!!!
Торрент  Добавлен [04 окт 2014, 00:12] Скачать торрент
Скачать торрент
[ Размер 11.6 КБ / Просмотров 6 ]

Статус
Проверен 
 
Размер  4.39 ГБ
Приватный: Нет (DHT включён)
.torrent скачан  116
Как залить торрент? | Как скачать Torrent? | Как смотреть и слушать онлайн?  


     Отправить личное сообщение
   
Страница 1 из 1
Показать сообщения за:  Поле сортировки  
Начать новую тему Ответить на тему

   Похожие торренты   Автор   Ответы   Просмотры   Последнее сообщение 
В этой теме нет новых непрочитанных сообщений. Скачать торрент Проверен Откройте, полиция!: Трилогия / Les Ripoux: Trilogy (1984-2003) BDRip 720p | D, P

в форуме 720p | 1080p, Размер: 12.65 ГБ, Здоровье: 100%

Гость

0
81|6

228
389

22 дек 2015, 20:06

Гость Перейти к последнему сообщению

В этой теме нет новых непрочитанных сообщений. Скачать торрент Проверен The Police: Certifiable - Live in Buenos Aires [2008 г., Rock, BDRip 720p]

в форуме Концерты (HD-Video), Размер: 4.37 ГБ, Здоровье: 100%

Гость

0
5|3

38
2

01 май 2015, 20:04

Гость Перейти к последнему сообщению

В этой теме нет новых непрочитанных сообщений. Скачать торрент Проверен Валё Пер, Шёвалль Май - Мартин Бек 6. Полиция, полиция, картофельное пюре! [Броцкая Леонтина, 2014 г., 96 kbps, MP3]

в форуме Детектив и Боевики, Размер: 299.76 МБ, Здоровье: 0%

Anonymous

0
0|0

0
0

20 ноя 2016, 02:54

Anonymous Перейти к последнему сообщению

В этой теме нет новых непрочитанных сообщений. Скачать торрент Проверен Валё П., Шеваль М - Гибель 31-го отдела. Запертая комната. Полиция, полиция, картофельное пюре! [1992, DjVu, RUS]

в форуме Детективы и Боевики, Размер: 14 МБ, Здоровье: 0%

Anonymous

0
0|0

1
0

08 сен 2016, 21:41

Anonymous Перейти к последнему сообщению

В этой теме нет новых непрочитанных сообщений. Скачать торрент Проверен Вале Пер, Шеваль Май - "Полиция, полиция, картофельное пюре!" [Шимук Петр, 128 kbps]

в форуме Детектив и Боевики, Размер: 236.78 МБ, Здоровье: 0%

Anonymous

0
0|0

2
0

04 май 2016, 21:52

Anonymous Перейти к последнему сообщению



Сейчас этот форум просматривают: нет зарегистрированных пользователей и гости: 3


Вы не можете начинать темы
Вы не можете отвечать на сообщения
Вы не можете редактировать свои сообщения
Вы не можете удалять свои сообщения
Вы не можете добавлять вложения

Перейти:  

!ВНИМАНИЕ!
 Ресурс не предоставляет электронные версии произведений, а занимается лишь коллекционированием и каталогизацией ссылок, присылаемых и публикуемых на форуме нашими читателями. Если вы являетесь правообладателем какого-либо представленного материала и не желаете чтобы ссылка на него находилась в нашем каталоге, свяжитесь с нами и мы незамедлительно удалим её. Файлы для обмена на трекере предоставлены пользователями сайта, и администрация не несёт ответственности за их содержание. Просьба не заливать файлы, защищенные авторскими правами, а также файлы нелегального содержания!