На всех торрентах на трекере установлена скидка на скачивание в размере 100 процентов(а).
 Возможность скачивания торрента НЕ зависит от ограничений при низком ратио, низком аплоаде, требуемом ратио или требуемом аплоаде.


Начать новую тему Ответить на тему
Статистика раздачи
Размер: 11.56 ГБ | Добавлен: 29 сен 2014, 23:28 | Скачали: 342
Сидеров: 48  [0 байт/сек]    Личеров: 3  [0 байт/сек]
Пред. тема | След. тема 

Автор
Сообщение

СообщениеДобавлено: 29 сен 2014, 23:28 

Название: Арн. Рыцарь-тамплиер
Оригинальное название: Arn. Tempelriddaren
Год выпуска: 2007
Жанр: Боевик, драма, мелодрама, приключения, военный, экранизация
Выпущено: Германия, Дания, Швеция, Финляндия, Великобритания, Норвегия, AMC Pictures, Arion Communications Ltd., Dagsljus Filmequipment
Режиссер: Петер Флинт
В ролях: Йоаким Наттерквист, София Хелин, Стеллан Скарсгард, Микаэл Нюквист, Морган Аллинг, Свен-Бертиль Таубе, Биби Андерссон, Густаф Скарсгард, Саймон Кэллоу, Венсан Перес, Юлия Дуфвениус, Сванте Мартин, Ёрген Лангхелле, Томас В. Габриэльссон, Лотта Ларссон, Дуглас Йоханссон, Роберт Шёблум, Томас Больме, Йозефин Льюнгман, Ингмар Свенссон, Милинд Соман, Стивен Вэддингтон, Николас Болтон, Мирья Турестедт, Пер Мирберг, Барнеби Кэй

О фильме: Арн, сын высокопоставленного шведского дворянина, заканчивает своё монастырское обучение и, в наказание за свою запретную любовь, отправляется в Священные земли в качестве рыцаря-тамплиера. Там ему суждено принять участие в битве при Хатине и других событиях, связанных с тяжёлыми временами Иерусалимского королевства . Экранизация произведения Яна Гиллоу.

Качество: BDRip 1080р
Видео: MPEG-4 AVC, 11 Mбит/с, 1920х816, 24 кадра/с, 0.293 bpp
Аудио: Русский (AC3, 6 ch, 640 Кбит/с)
Размер: 11.56 ГБ
Продолжительность: 02:19:13
Перевод: Профессиональный многоголосый (студия Кравец)

Имеются неименованные главы/чаптеры.



Европейская киноакадемия, 2008 год
Номинации (1):
Приз зрительских симпатий за лучший фильм
Общее
Уникальный идентификатор : 214989934834003436107938344334064325538 (0xA1BD8E29B47676E7A0EBDC25973393A2)
Полное имя : D:VideoArn. Rycar Tamplier.2007.BDRip.1080p.mkv
Формат : Matroska
Версия формата : Version 4 / Version 2
Размер файла : 11,6 Гбайт
Продолжительность : 2 ч. 19 м.
Общий поток : 11,9 Мбит/сек
Дата кодирования : UTC 2014-09-29 14:00:51
Программа кодирования : mkvmerge v6.9.1 ('Blue Panther') 64bit built on Apr 18 2014 18:23:38
Библиотека кодирования : libebml v1.3.0 + libmatroska v1.4.1

Видео
Идентификатор : 1
Формат : AVC
Формат/Информация : Advanced Video Codec
Профиль формата : High@L4.1
Параметр CABAC формата : Да
Параметр ReFrames формата : 4 кадра
Идентификатор кодека : V_MPEG4/ISO/AVC
Продолжительность : 2 ч. 19 м.
Битрейт : 11,0 Мбит/сек
Ширина : 1920 пикселей
Высота : 816 пикселей
Соотношение сторон : 2,35:1
Режим частоты кадров : Постоянный
Частота кадров : 24,000 кадра/сек
Цветовое пространство : YUV
Субдискретизация насыщенности : 4:2:0
Битовая глубина : 8 бит
Тип развёртки : Прогрессивная
Бит/(Пиксели*Кадры) : 0.293
Размер потока : 10,7 Гбайт (93%)
Заголовок : BDRip -- STarankov
Библиотека кодирования : x264 core 142 r2431 ac76440
Настройки программы : cabac=1 / ref=4 / deblock=1:-1:-1 / analyse=0x3:0x113 / me=umh / subme=10 / psy=1 / psy_rd=1.00:0.15 / mixed_ref=1 / me_range=32 / chroma_me=1 / trellis=2 / 8x8dct=1 / cqm=0 / deadzone=21,11 / fast_pskip=0 / chroma_qp_offset=-3 / threads=6 / lookahead_threads=1 / sliced_threads=0 / nr=0 / decimate=1 / interlaced=0 / bluray_compat=0 / constrained_intra=0 / bframes=8 / b_pyramid=2 / b_adapt=2 / b_bias=0 / direct=1 / weightb=1 / open_gop=0 / weightp=2 / keyint=230 / keyint_min=23 / scenecut=40 / intra_refresh=0 / rc_lookahead=40 / rc=crf / mbtree=0 / crf=18.0 / qcomp=0.60 / qpmin=0 / qpmax=69 / qpstep=4 / vbv_maxrate=40000 / vbv_bufsize=50000 / crf_max=0.0 / nal_hrd=none / filler=0 / ip_ratio=1.40 / pb_ratio=1.30 / aq=1:1.00
Язык : English
Default : Да
Forced : Нет

Аудио
Идентификатор : 2
Формат : AC-3
Формат/Информация : Audio Coding 3
Расширение режима : CM (complete main)
Параметр Endianness формата : Big
Идентификатор кодека : A_AC3
Продолжительность : 2 ч. 19 м.
Вид битрейта : Постоянный
Битрейт : 640 Кбит/сек
Каналы : 6 каналов
Расположение каналов : Front: L C R, Side: L R, LFE
Частота : 48,0 КГц
Битовая глубина : 16 бит
Метод сжатия : С потерями
Размер потока : 637 Мбайт (5%)
Заголовок : MVO
Язык : Russian
Default : Да
Forced : Нет

Меню
00:00:00.000 : :Chapter 01
00:12:43.375 : :Chapter 02
00:26:16.125 : :Chapter 03
00:38:40.750 : :Chapter 04
00:52:11.208 : :Chapter 05
01:05:08.041 : :Chapter 06
01:17:10.875 : :Chapter 07
01:30:14.000 : :Chapter 08
01:44:33.916 : :Chapter 09
01:57:44.166 : :Chapter 10
02:10:55.000 : :Chapter 11
02:18:25.833 : :Chapter 12

загрузка...
Правила, инструкции, FAQ!!!
Торрент  Добавлен [29 сен 2014, 23:28] Скачать торрент
Скачать торрент
[ Размер 29.4 КБ / Просмотров 16 ]

Статус
Проверен 
 
Размер  11.56 ГБ
Приватный: Нет (DHT включён)
.torrent скачан  342
Как залить торрент? | Как скачать Torrent? | Как смотреть и слушать онлайн?  


     Отправить личное сообщение
   
Страница 1 из 1
Показать сообщения за:  Поле сортировки  
Начать новую тему Ответить на тему

   Похожие торренты   Автор   Ответы   Просмотры   Последнее сообщение 
В этой теме нет новых непрочитанных сообщений. Скачать торрент Арн: Рыцарь-Тамплиер / Arn - Tempelriddaren (Петер Флинт) [2007 г., Боевик, мелодрама, драма, приключения, военный, DVDRip]

в форуме Боевики, Размер: 1.37 ГБ, Здоровье: 100%

Anonymous

0
5|2

57
0

19 фев 2014, 09:56

Anonymous Перейти к последнему сообщению

В этой теме нет новых непрочитанных сообщений. Скачать торрент Проверен [iPhone] Арн: Рыцарь-тамплиер, Арн: Королевство в конце пути (Объединенное королевство) / Arn - Tempelriddaren, Arn - Riket vid vagens slut (Петер Флинт) [2007, 2008, боевик, драма, мелодрама, приключения, военный, BDRip, 720x320]

в форуме Фильмы для iPod, iPhone, iPad, Размер: 2.46 ГБ, Здоровье: 100%

Гость

0
5|1

40
0

18 май 2015, 10:54

Гость Перейти к последнему сообщению

В этой теме нет новых непрочитанных сообщений. Скачать торрент Черный рыцарь / Black Knight (2001) BDRip 1080p

в форуме 720p | 1080p, Размер: 5.75 ГБ, Здоровье: 0%

Anonymous

0
0|0

48
0

03 янв 2014, 12:27

Anonymous Перейти к последнему сообщению

В этой теме нет новых непрочитанных сообщений. Скачать торрент Черный рыцарь / Black Knight (2001) BDRip

в форуме Фантастика, Фэнтези, Размер: 1.88 ГБ, Здоровье: 100%

Anonymous

0
5|1

59
28

03 янв 2014, 12:21

Anonymous Перейти к последнему сообщению

В этой теме нет новых непрочитанных сообщений. Скачать торрент Первый рыцарь / First Knight (1995) BDRip 1080р

в форуме 720p | 1080p, Размер: 5.76 ГБ, Здоровье: 100%

Anonymous

0
4|3

46
10

15 мар 2014, 13:36

Anonymous Перейти к последнему сообщению



Сейчас этот форум просматривают: нет зарегистрированных пользователей и гости: 2


Вы не можете начинать темы
Вы не можете отвечать на сообщения
Вы не можете редактировать свои сообщения
Вы не можете удалять свои сообщения
Вы не можете добавлять вложения

Перейти:  

!ВНИМАНИЕ!
 Ресурс не предоставляет электронные версии произведений, а занимается лишь коллекционированием и каталогизацией ссылок, присылаемых и публикуемых на форуме нашими читателями. Если вы являетесь правообладателем какого-либо представленного материала и не желаете чтобы ссылка на него находилась в нашем каталоге, свяжитесь с нами и мы незамедлительно удалим её. Файлы для обмена на трекере предоставлены пользователями сайта, и администрация не несёт ответственности за их содержание. Просьба не заливать файлы, защищенные авторскими правами, а также файлы нелегального содержания!