На всех торрентах на трекере установлена скидка на скачивание в размере 100 процентов(а).
 Возможность скачивания торрента НЕ зависит от ограничений при низком ратио, низком аплоаде, требуемом ратио или требуемом аплоаде.


Начать новую тему Ответить на тему
Статистика раздачи
Размер: 12.47 ГБ | Добавлен: 29 сен 2014, 17:40 | Скачали: 190
Сидеров: 16  [0 байт/сек]    Личеров: 1  [0 байт/сек]
Пред. тема | След. тема 

Автор
Сообщение

СообщениеДобавлено: 29 сен 2014, 17:40 

Название: Добро пожаловать в капкан
Оригинальное название: Welcome to the Punch
Год выпуска: 2013
Жанр: Боевик, триллер, криминал
Выпущено: Великобритания, США, Automatik Entertainment, Between The Eyes, Scott Free Productions, Worldview Entertainment
Режиссер: Эрен Криви
В ролях: Джеймс МакЭвой, Марк Стронг, Андреа Райзборо, Дэвид Моррисси, Питер Муллан, Джейсон Флеминг, Элайес Габел, Дэниэл Калуя, Дэниэл Мейс, Джонни Харрис

О фильме: Макс Левински, стремительный и бесстрашный полицейский, получив информацию от осведомителя, без оружия немедленно ринулся за бандой самого опасного грабителя, легенды преступного мира - Джейкоба Стернвуда. Но бандит, ранив полицейского в ногу, уходит. Спустя три года у Левински появляется возможность вновь встретиться со своим заклятым врагом: сын Стернвуда лежит в больнице с огнестрельным ранением. После какого-то очень сомнительного ограбления его, похоже, пытались убрать. Макс уверен, что бандит теперь обнаружит себя, попытавшись выкрасть сына и разобраться с его обидчиками. Неожиданно Макса обвиняют в убийстве его напарницы, в которую он был влюблён. Расследуя ограбление, закончившееся для сына Стернвуда трагически, она и Макс вышли на коррумпированных полицейских, но перед смертью ей, похоже, удалось узнать больше. И чтобы выяснить это два заклятых врага вместе едут в транспортную фирму "Капкан", над воротами которой красовалась самая доброжелательная надпись "Добро пожаловать в "Капкан"...

Качество: BDRip 1080p
Размер: 12.47 ГБ
Продолжительность: 01:39:47

Видео: MPEG-4 AVC, 12.1 Mбит/с, 1920x800, 23,976 кадра/с, 0.329 bpp
Аудио 1: русский, AC3, 448 kbps, 6 ch, 48 kHz [дублированный, студия Пифагор]
Аудио 2: русский, DTS, 1509 kbps, 6 ch, 48 kHz [авторский, Андрей Гаврилов]
Аудио 3: русский, DTS, 1509 kbps, 6 ch, 48 kHz [авторский, Евгений Гаевский]
Аудио 4: русский, AC3, 448 kbps, 6 ch, 48 kHz [авторский, Андрей Дольский]
Аудио 5: английский, DTS, 1509 kbps, 6 ch, 48 kHz [оригинал]
Субтитры 1: русские
Субтитры 2: английские

Имеются неименованные главы/чаптеры.



Общее
Уникальный идентификатор : 235565033345501172309537528031027366978 (0xB1382CD717F60CC1A52271C50E678C42)
Полное имя : D:VideoDobro pogalovat v kapkan.2013.BDRip.1080p.mkv
Формат : Matroska
Версия формата : Version 4 / Version 2
Размер файла : 12,5 Гбайт
Продолжительность : 1 ч. 39 м.
Общий поток : 17,9 Мбит/сек
Дата кодирования : UTC 2014-09-29 02:22:17
Программа кодирования : mkvmerge v6.9.1 ('Blue Panther') 64bit built on Apr 18 2014 18:23:38
Библиотека кодирования : libebml v1.3.0 + libmatroska v1.4.1

Видео
Идентификатор : 1
Формат : AVC
Формат/Информация : Advanced Video Codec
Профиль формата : High@L4.1
Параметр CABAC формата : Да
Параметр ReFrames формата : 4 кадра
Идентификатор кодека : V_MPEG4/ISO/AVC
Продолжительность : 1 ч. 39 м.
Битрейт : 12,1 Мбит/сек
Ширина : 1920 пикселей
Высота : 800 пикселей
Соотношение сторон : 2,40:1
Режим частоты кадров : Постоянный
Частота кадров : 23,976 кадра/сек
Цветовое пространство : YUV
Субдискретизация насыщенности : 4:2:0
Битовая глубина : 8 бит
Тип развёртки : Прогрессивная
Бит/(Пиксели*Кадры) : 0.329
Размер потока : 8,44 Гбайт (68%)
Заголовок : BDRip -- STarankov
Библиотека кодирования : x264 core 142 r2431 ac76440
Настройки программы : cabac=1 / ref=4 / deblock=1:-1:-1 / analyse=0x3:0x113 / me=umh / subme=10 / psy=1 / psy_rd=1.00:0.15 / mixed_ref=1 / me_range=32 / chroma_me=1 / trellis=2 / 8x8dct=1 / cqm=0 / deadzone=21,11 / fast_pskip=0 / chroma_qp_offset=-3 / threads=6 / lookahead_threads=1 / sliced_threads=0 / nr=0 / decimate=1 / interlaced=0 / bluray_compat=0 / constrained_intra=0 / bframes=8 / b_pyramid=2 / b_adapt=2 / b_bias=0 / direct=1 / weightb=1 / open_gop=0 / weightp=2 / keyint=230 / keyint_min=23 / scenecut=40 / intra_refresh=0 / rc_lookahead=40 / rc=crf / mbtree=0 / crf=18.0 / qcomp=0.60 / qpmin=0 / qpmax=69 / qpstep=4 / vbv_maxrate=40000 / vbv_bufsize=50000 / crf_max=0.0 / nal_hrd=none / filler=0 / ip_ratio=1.40 / pb_ratio=1.30 / aq=1:1.00
Язык : English
Default : Да
Forced : Нет

Аудио #1
Идентификатор : 2
Формат : AC-3
Формат/Информация : Audio Coding 3
Расширение режима : CM (complete main)
Параметр Endianness формата : Big
Идентификатор кодека : A_AC3
Продолжительность : 1 ч. 39 м.
Вид битрейта : Постоянный
Битрейт : 448 Кбит/сек
Каналы : 6 каналов
Расположение каналов : Front: L C R, Side: L R, LFE
Частота : 48,0 КГц
Битовая глубина : 16 бит
Метод сжатия : С потерями
Размер потока : 320 Мбайт (3%)
Заголовок : DUB (студия Пифагор)
Язык : Russian
Default : Да
Forced : Нет

Аудио #2
Идентификатор : 3
Формат : DTS
Формат/Информация : Digital Theater Systems
Режим : 16
Параметр Endianness формата : Big
Идентификатор кодека : A_DTS
Продолжительность : 1 ч. 39 м.
Вид битрейта : Постоянный
Битрейт : 1509 Кбит/сек
Каналы : 6 каналов
Расположение каналов : Front: L C R, Side: L R, LFE
Частота : 48,0 КГц
Битовая глубина : 24 бит
Метод сжатия : С потерями
Размер потока : 1,05 Гбайт (8%)
Заголовок : AVO (Андрей Гаврилов)
Язык : Russian
Default : Нет
Forced : Нет

Аудио #3
Идентификатор : 4
Формат : DTS
Формат/Информация : Digital Theater Systems
Режим : 16
Параметр Endianness формата : Big
Идентификатор кодека : A_DTS
Продолжительность : 1 ч. 39 м.
Вид битрейта : Постоянный
Битрейт : 1509 Кбит/сек
Каналы : 6 каналов
Расположение каналов : Front: L C R, Side: L R, LFE
Частота : 48,0 КГц
Битовая глубина : 24 бит
Метод сжатия : С потерями
Размер потока : 1,05 Гбайт (8%)
Заголовок : AVO (Евгений Гаевский)
Язык : Russian
Default : Нет
Forced : Нет

Аудио #4
Идентификатор : 5
Формат : AC-3
Формат/Информация : Audio Coding 3
Расширение режима : CM (complete main)
Параметр Endianness формата : Big
Идентификатор кодека : A_AC3
Продолжительность : 1 ч. 39 м.
Вид битрейта : Постоянный
Битрейт : 448 Кбит/сек
Каналы : 6 каналов
Расположение каналов : Front: L C R, Side: L R, LFE
Частота : 48,0 КГц
Битовая глубина : 16 бит
Метод сжатия : С потерями
Размер потока : 320 Мбайт (3%)
Заголовок : AVO (Андрей Дольский)
Язык : Russian
Default : Нет
Forced : Нет

Аудио #5
Идентификатор : 6
Формат : DTS
Формат/Информация : Digital Theater Systems
Режим : 16
Параметр Endianness формата : Big
Идентификатор кодека : A_DTS
Продолжительность : 1 ч. 39 м.
Вид битрейта : Постоянный
Битрейт : 1509 Кбит/сек
Каналы : 6 каналов
Расположение каналов : Front: L C R, Side: L R, LFE
Частота : 48,0 КГц
Битовая глубина : 24 бит
Метод сжатия : С потерями
Размер потока : 1,05 Гбайт (8%)
Заголовок : Original
Язык : English
Default : Нет
Forced : Нет

Текст #1
Идентификатор : 7
Формат : UTF-8
Идентификатор кодека : S_TEXT/UTF8
Идентификатор кодека/Информация : UTF-8 Plain Text
Заголовок : русский
Язык : Russian
Default : Нет
Forced : Нет

Текст #2
Идентификатор : 8
Формат : UTF-8
Идентификатор кодека : S_TEXT/UTF8
Идентификатор кодека/Информация : UTF-8 Plain Text
Заголовок : английский
Default : Нет
Forced : Нет

Меню
00:00:00.000 : en:Chapter 01
00:08:29.258 : en:Chapter 02
00:15:54.744 : en:Chapter 03
00:25:26.565 : en:Chapter 04
00:32:20.355 : en:Chapter 05
00:41:14.430 : en:Chapter 06
00:49:53.614 : en:Chapter 07
01:00:20.073 : en:Chapter 08
01:08:27.269 : en:Chapter 09
01:14:00.519 : en:Chapter 10
01:23:20.787 : en:Chapter 11
01:32:21.702 : en:Chapter 12

загрузка...
Правила, инструкции, FAQ!!!
Торрент  Добавлен [29 сен 2014, 17:40] Скачать торрент
Скачать торрент
[ Размер 31.67 КБ / Просмотров 3 ]

Статус
Проверен 
 
Размер  12.47 ГБ
Приватный: Нет (DHT включён)
.torrent скачан  190
Как залить торрент? | Как скачать Torrent? | Как смотреть и слушать онлайн?  


     Отправить личное сообщение
   
Страница 1 из 1
Показать сообщения за:  Поле сортировки  
Начать новую тему Ответить на тему

   Похожие торренты   Автор   Ответы   Просмотры   Последнее сообщение 
В этой теме нет новых непрочитанных сообщений. Скачать торрент Добро пожаловать в капкан / Welcome to the Punch (2013) HDRip-AVC | A

в форуме 720p | 1080p, Размер: 741.08 МБ, Здоровье: 100%

Anonymous

0
9|1

170
41

23 янв 2014, 20:31

Anonymous Перейти к последнему сообщению

В этой теме нет новых непрочитанных сообщений. Скачать торрент Добро пожаловать в капкан / Welcome to the Punch (2013) HDRip | Чистый звук

в форуме Боевики, Размер: 1.36 ГБ, Здоровье: 100%

Anonymous

0
184|5

132
1392

30 мар 2014, 14:18

Anonymous Перейти к последнему сообщению

В этой теме нет новых непрочитанных сообщений. Скачать торрент Добро пожаловать в джунгли / Welcome to the Jungle (2013) BDRip 1080p | L2

в форуме 720p | 1080p, Размер: 7.44 ГБ, Здоровье: 0%

Anonymous

0
0|0

111
0

09 фев 2014, 00:12

Anonymous Перейти к последнему сообщению

В этой теме нет новых непрочитанных сообщений. Скачать торрент Проверен Добро пожаловать, или Посторонним вход воспрещён (Элем Климов) [1964, СССР, комедия, BDRip 1080p]

в форуме Наше кино (HD Video), Размер: 9.91 ГБ, Здоровье: 100%

Anonymous

0
57|20

40
5

12 апр 2015, 15:05

Anonymous Перейти к последнему сообщению

В этой теме нет новых непрочитанных сообщений. Скачать торрент Добро пожаловать в джунгли / Welcome to the Jungle (2013) BDRip 720p | L2

в форуме 720p | 1080p, Размер: 4.67 ГБ, Здоровье: 100%

Anonymous

0
10|0

370
8

08 фев 2014, 22:30

Anonymous Перейти к последнему сообщению



Сейчас этот форум просматривают: нет зарегистрированных пользователей и гости: 4


Вы не можете начинать темы
Вы не можете отвечать на сообщения
Вы не можете редактировать свои сообщения
Вы не можете удалять свои сообщения
Вы не можете добавлять вложения

Перейти:  

!ВНИМАНИЕ!
 Ресурс не предоставляет электронные версии произведений, а занимается лишь коллекционированием и каталогизацией ссылок, присылаемых и публикуемых на форуме нашими читателями. Если вы являетесь правообладателем какого-либо представленного материала и не желаете чтобы ссылка на него находилась в нашем каталоге, свяжитесь с нами и мы незамедлительно удалим её. Файлы для обмена на трекере предоставлены пользователями сайта, и администрация не несёт ответственности за их содержание. Просьба не заливать файлы, защищенные авторскими правами, а также файлы нелегального содержания!