На всех торрентах на трекере установлена скидка на скачивание в размере 100 процентов(а).
 Возможность скачивания торрента НЕ зависит от ограничений при низком ратио, низком аплоаде, требуемом ратио или требуемом аплоаде.


Начать новую тему Ответить на тему
Статистика раздачи
Размер: 3.4 ГБ | Добавлен: 28 сен 2014, 20:50 | Скачали: 0
Сидеров: 84  [0 байт/сек]    Личеров: 2  [0 байт/сек]
Пред. тема | След. тема 

Автор
Сообщение

СообщениеДобавлено: 28 сен 2014, 20:50 

Год выпуска: 2014
Производство: США, Strohberry Films
Жанр: Приключения, боевик

Режиссер: Эрни Барбараш
Продюсер: Эрнст Стро, Шеер Стро, Йорам Барзилай
Актеры: Нил МакДонаф, Майкл Джей Уайт, Лайла Али, Милли Руперто, Латиф Кроудер, Хазуки Като, Масаси Одате, Жасмин Каратини, Джонни Янг

Описание фильма:
Джон Чепмен по кличке «Сокол» отправляется в Бразилию, чтобы выследить убийц своей сестры. В процессе поисков он сталкивается с контролируемым японской мафией подпольным миром наркотиков, проституции и продажных полицейских.

Перевод: Любительский одноголосый [R.A.I.M]
Субтитры: Отсутствуют



Дата мировой премьеры: 5 сентября 2014

Продолжительность: 01:40:58
Качество видео: WEB-DLRip (AVC)

Видеокодек: MPEG-4 AVC
Битрейт видео: ~3958 Кбит/с
Размер кадра: 1280х684
Аудио:
1. AC3, 6 ch, 384 Кбит/с - русский
2. AC3, 6 ch, 384 Кбит/с - английский
Общее
Уникальный идентификатор : 217542419840513180115247570823865874145 (0xA3A92563D4679D04A497385AA0B2B6E1)
Полное имя : C:\NNM\Восхождение Сокола\Voshozhdenie sokola 2014 WEB-DLRip 720p-LQ.mkv
Формат : Matroska
Версия формата : Version 2
Размер файла : 3,40 Гбайт
Продолжительность : 1 ч. 40 м.
Общий поток : 4822 Кбит/сек
Программа кодирования : mkvmerge v6.1.0 ('Old Devil') built on Mar 4 2013 09:10:42
Библиотека кодирования : libebml v1.3.0 + libmatroska v1.4.0

Видео
Идентификатор : 1
Формат : AVC
Формат/Информация : Advanced Video Codec
Профиль формата :
Параметр CABAC формата : Нет
Параметр ReFrames формата : 2 кадра
Идентификатор кодека : V_MPEG4/ISO/AVC
Продолжительность : 1 ч. 40 м.
Битрейт : 3958 Кбит/сек
Ширина : 1280 пикселей
Высота : 684 пикселя
Соотношение сторон : 1,871
Частота кадров : 23,976 кадра/сек
Цветовое пространство : YUV
Субдискретизация насыщенности : 4:2:0
Битовая глубина : 8 бит
Тип развёртки : Прогрессивная
Бит/(Пиксели*Кадры) : 0.189
Размер потока : 2,79 Гбайт (82%)
Язык : English
Default : Да
Forced : Нет
Основные цвета : BT.709-5, BT.1361, IEC 61966-2-4, SMPTE RP177
Характеристики трансфера : BT.709-5, BT.1361
Коэффициенты матрицы : BT.709-5, BT.1361, IEC 61966-2-4 709, SMPTE RP177

Аудио #1
Идентификатор : 2
Формат : AC-3
Формат/Информация : Audio Coding 3
Расширение режима : CM (complete main)
Идентификатор кодека : A_AC3
Продолжительность : 1 ч. 40 м.
Вид битрейта : Постоянный
Битрейт : 384 Кбит/сек
Каналы : 6 каналов
Расположение каналов : Front: L C R, Side: L R, LFE
Частота : 48,0 КГц
Битовая глубина : 16 бит
Метод сжатия : С потерями
Размер потока : 277 Мбайт (8%)
Язык : Russian
Default : Да
Forced : Нет

Аудио #2
Идентификатор : 3
Формат : AC-3
Формат/Информация : Audio Coding 3
Расширение режима : CM (complete main)
Идентификатор кодека : A_AC3
Продолжительность : 1 ч. 40 м.
Вид битрейта : Постоянный
Битрейт : 384 Кбит/сек
Каналы : 6 каналов
Расположение каналов : Front: L C R, Side: L R, LFE
Частота : 48,0 КГц
Битовая глубина : 16 бит
Метод сжатия : С потерями
Размер потока : 277 Мбайт (8%)
Язык : English
Default : Нет
Forced : Нет

Текст
Идентификатор : 4
Формат : UTF-8
Идентификатор кодека : S_TEXT/UTF8
Идентификатор кодека/Информация : UTF-8 Plain Text
Язык : English
Default : Нет
Forced : Нет

Меню
00:00:00.000 : en:1
00:11:30.000 : en:2
00:24:35.000 : en:3
00:34:28.000 : en:4
00:44:48.000 : en:5
00:55:28.000 : en:6
01:06:32.000 : en:7
01:16:01.000 : en:8
01:30:53.000 : en:9
01:35:44.000 : en:10
Скриншоты:
[center]

загрузка...
Правила, инструкции, FAQ!!!
Торрент  Добавлен [28 сен 2014, 20:50] Скачать торрент
Скачать торрент
[ Размер 17.76 КБ / Просмотров 11 ]

Статус
Проверен 
 
Размер  3.4 ГБ
Приватный: Нет (DHT включён)
.torrent скачан  0
Как залить торрент? | Как скачать Torrent? | Как смотреть и слушать онлайн?  


     Отправить личное сообщение
   
Страница 1 из 1
Показать сообщения за:  Поле сортировки  
Начать новую тему Ответить на тему

   Похожие торренты   Автор   Ответы   Просмотры   Последнее сообщение 
В этой теме нет новых непрочитанных сообщений. Скачать торрент Проверен Восхождение Сокола / Falcon Rising (2014) WEB-DLRip [H.264][VO]

в форуме Боевики, Размер: 1.54 ГБ, Здоровье: 0%

Anonymous

0
0|0

35
0

28 сен 2014, 20:46

Anonymous Перейти к последнему сообщению

В этой теме нет новых непрочитанных сообщений. Скачать торрент Скуби-Ду! Маска голубого сокола / Scooby-Doo! Mask of the Blue Falcon (2012) BDRip 720p

в форуме Зарубежные мультфильмы (HD Video), Размер: 1.55 ГБ, Здоровье: 100%

Anonymous

0
15|3

57
3

25 дек 2013, 14:33

Anonymous Перейти к последнему сообщению

В этой теме нет новых непрочитанных сообщений. Скачать торрент Ганнибал: Восхождение / Hannibal Rising (Питер Веббер / Peter Webber) [2007 г., ужасы, триллер, драма, HDRip] [UNRATED] Dub

в форуме Ужасы, Размер: 1.46 ГБ, Здоровье: 100%

Anonymous

0
21|7

89
0

16 фев 2014, 13:08

Anonymous Перейти к последнему сообщению

В этой теме нет новых непрочитанных сообщений. Скачать торрент Ганнибал: Восхождение / Hannibal Rising (Питер Веббер / Peter Webber) [2007, триллер, драма, BDRip-AVC] MVO + AVO (Рябов) + Original + Subs (Rus, Eng)

в форуме 720p | 1080p, Размер: 2.88 ГБ, Здоровье: 100%

Anonymous

0
23|7

64
1

07 фев 2014, 11:42

Anonymous Перейти к последнему сообщению

В этой теме нет новых непрочитанных сообщений. Скачать торрент Проверен (Heavy Metal, Glam) Falcon Scream (клон раннего Skid Row) - 1995 - Falcon Scream, MP3, VBR 224 kbps

в форуме Heavy, Power, Progressive (Metal), Размер: 75.3 МБ, Здоровье: 0%

Anonymous

0
0|0

6
0

09 окт 2016, 15:07

Anonymous Перейти к последнему сообщению



Сейчас этот форум просматривают: нет зарегистрированных пользователей и гости: 1


Вы не можете начинать темы
Вы не можете отвечать на сообщения
Вы не можете редактировать свои сообщения
Вы не можете удалять свои сообщения
Вы не можете добавлять вложения

Перейти:  

!ВНИМАНИЕ!
 Ресурс не предоставляет электронные версии произведений, а занимается лишь коллекционированием и каталогизацией ссылок, присылаемых и публикуемых на форуме нашими читателями. Если вы являетесь правообладателем какого-либо представленного материала и не желаете чтобы ссылка на него находилась в нашем каталоге, свяжитесь с нами и мы незамедлительно удалим её. Файлы для обмена на трекере предоставлены пользователями сайта, и администрация не несёт ответственности за их содержание. Просьба не заливать файлы, защищенные авторскими правами, а также файлы нелегального содержания!