На всех торрентах на трекере установлена скидка на скачивание в размере 100 процентов(а).
 Возможность скачивания торрента НЕ зависит от ограничений при низком ратио, низком аплоаде, требуемом ратио или требуемом аплоаде.


Начать новую тему Ответить на тему
Статистика раздачи
Размер: 2.18 ГБ | Добавлен: 14 мар 2013, 22:38 | Скачали: 0
Сидеров: 0  [0 байт/сек]    Личеров: 0  [0 байт/сек]
Пред. тема | След. тема 

Автор
Сообщение

СообщениеДобавлено: 14 мар 2013, 22:38 

Бездна / The Deep






Название: Бездна
Оригинальное название: The Deep
Год выхода: 1977
Жанр: ужасы, триллер, детектив, приключения
Режиссер: Питер Йетс

В фильме снимались: Роберт Шоу, Жаклин Биссет, Ник Нолти, Луис Госсет мл., Эли Уоллах, Дик Энтони Уильямс, Эрл Мэйнард, Боб Майнор, Тедди Таккер, Роберт Тессьер ...

Вкратце:
Супруги Гейл и Дэвид проводят отпуск на экзотическом бермудском острове. Во время подводной охоты им достается роскошная и опасная добыча: они находят затонувший испанский корабль, который набит несметными сокровищами.

Искатели приключений и не подозревают, с чем им предстоит столкнуться в погоне за кладом. В конце концов, они оказываются на краю бездны, где любое неверное движение может стоить жизни.



Страна: США
Продолжительность: 2:04:30
Перевод: Многоголосый закадровый (профессиональный), Авторский одноголосый закадровый (Ю. Живов), Оригинал (Английский)

Формат: mkv
Кодек: h.264
Качество: BDRip-AVC
Видео: 960x400 (2,40:1), 23.976 fps, 1735 kbps, 0.188 bit/pixel
Аудио #1: 48 kHz, AC3 2.0, 192.00 kbps (Многоголосый)
Аудио #2: 48 kHz, AC3 5.1, 384.00 kbps (Ю. Живов)
Аудио #3: 48 kHz, AC3 2.0, 192.00 kbps (Английский)
Субтитры: Английские (отключаемые)



Общее
Уникальный идентификатор : 226162822329041909136394658488615872589 (0xAA25600BFF4A7398A79EC9C8C9CAA84D)
Полное имя : D:The Deep.1977.BDRip-AVC.mkv
Формат : Matroska
Версия формата : Version 2
Размер файла : 2,18 Гбайт
Продолжительность : 2 ч. 4 м.
Общий поток : 2505 Кбит/сек
Название фильма : Бездна / The Deep (1977) BDRip-AVC rip by Rulya74
Дата кодирования : UTC 2012-10-29 04:41:56
Программа кодирования : mkvmerge v5.7.0 ('The Whirlwind') built on Jul 8 2012 20:08:51
Библиотека кодирования : libebml v1.2.3 + libmatroska v1.3.0

Видео
Идентификатор : 1
Формат : AVC
Формат/Информация : Advanced Video Codec
Профиль формата : High@L4.1
Параметр CABAC формата : Да
Параметр ReFrames формата : 12 кадров
Идентификатор кодека : V_MPEG4/ISO/AVC
Продолжительность : 2 ч. 4 м.
Битрейт : 1735 Кбит/сек
Ширина : 960 пикселей
Высота : 400 пикселей
Соотношение сторон : 2,40:1
Частота кадров : 23,976 кадра/сек
Цветовое пространство : YUV
Субдискретизация насыщенности : 4:2:0
Битовая глубина : 8 бит
Тип развёртки : Прогрессивная
Бит/(Пиксели*Кадры) : 0.188
Размер потока : 1,47 Гбайт (67%)
Библиотека кодирования : x264 core 128 r2216 198a7ea
Настройки программы : cabac=1 / ref=12 / deblock=1:-1:-1 / analyse=0x3:0x113 / me=umh / subme=10 / psy=1 / psy_rd=1.09:0.08 / mixed_ref=1 / me_range=48 / chroma_me=1 / trellis=2 / 8x8dct=1 / cqm=0 / deadzone=21,11 / fast_pskip=0 / chroma_qp_offset=-3 / threads=4 / lookahead_threads=1 / sliced_threads=0 / nr=0 / decimate=1 / interlaced=0 / bluray_compat=0 / constrained_intra=0 / bframes=11 / b_pyramid=2 / b_adapt=2 / b_bias=0 / direct=3 / weightb=1 / open_gop=0 / weightp=2 / keyint=240 / keyint_min=22 / scenecut=40 / intra_refresh=0 / rc_lookahead=40 / rc=2pass / mbtree=1 / bitrate=1735 / ratetol=1.0 / qcomp=0.60 / qpmin=0 / qpmax=69 / qpstep=4 / cplxblur=20.0 / qblur=0.5 / ip_ratio=1.40 / aq=2:1.00
Default : Да
Forced : Нет

Аудио #1
Идентификатор : 2
Формат : AC-3
Формат/Информация : Audio Coding 3
Профиль формата : Dolby Digital
Расширение режима : CM (complete main)
Идентификатор кодека : A_AC3
Продолжительность : 2 ч. 4 м.
Вид битрейта : Постоянный
Битрейт : 192 Кбит/сек
Каналы : 2 канала
Расположение каналов : Front: L R
Частота : 48,0 КГц
Битовая глубина : 16 бит
Метод сжатия : С потерями
Размер потока : 171 Мбайт (8%)
Заголовок : Многоголосый закадровый [R5]
Язык : Russian
Default : Да
Forced : Нет

Аудио #2
Идентификатор : 3
Формат : AC-3
Формат/Информация : Audio Coding 3
Расширение режима : CM (complete main)
Идентификатор кодека : A_AC3
Продолжительность : 2 ч. 4 м.
Вид битрейта : Постоянный
Битрейт : 384 Кбит/сек
Каналы : 6 каналов
Расположение каналов : Front: L C R, Side: L R, LFE
Частота : 48,0 КГц
Битовая глубина : 16 бит
Метод сжатия : С потерями
Размер потока : 342 Мбайт (15%)
Заголовок : Авторский (Ю. Живов)
Язык : Russian
Default : Нет
Forced : Нет

Аудио #3
Идентификатор : 4
Формат : AC-3
Формат/Информация : Audio Coding 3
Расширение режима : CM (complete main)
Идентификатор кодека : A_AC3
Продолжительность : 2 ч. 4 м.
Вид битрейта : Постоянный
Битрейт : 192 Кбит/сек
Каналы : 2 канала
Расположение каналов : Front: L R
Частота : 48,0 КГц
Битовая глубина : 16 бит
Метод сжатия : С потерями
Размер потока : 171 Мбайт (8%)
Заголовок : Оригинал
Язык : English
Default : Нет
Forced : Нет

Текст
Идентификатор : 5
Формат : UTF-8
Идентификатор кодека : S_TEXT/UTF8
Идентификатор кодека/Информация : UTF-8 Plain Text
Заголовок : English
Язык : English
Default : Да
Forced : Нет

Меню
00:00:00.000 : :00:00:00.000
00:08:33.555 : :00:08:33.555
00:16:56.182 : :00:16:56.182
00:22:52.079 : :00:22:52.079
00:29:13.669 : :00:29:13.669
00:40:16.539 : :00:40:16.539
00:47:18.294 : :00:47:18.294
00:55:24.029 : :00:55:24.029
01:12:44.819 : :01:12:44.819
01:19:36.897 : :01:19:36.897
01:26:58.922 : :01:26:58.922
01:34:20.905 : :01:34:20.905
01:41:07.019 : :01:41:07.019
01:46:58.996 : :01:46:58.996
01:54:33.992 : :01:54:33.992
02:00:27.470 : :02:00:27.470

загрузка...
Правила, инструкции, FAQ!!!
Торрент  Добавлен [14 мар 2013, 22:38] Скачать торрент
Скачать торрент
[ Размер 11.3 КБ / Просмотров 2 ]

Статус  
 
Размер  2.18 ГБ
Приватный: Нет (DHT включён)
.torrent скачан  0
Как залить торрент? | Как скачать Torrent? | Как смотреть и слушать онлайн?  


     Отправить личное сообщение
   
Страница 1 из 1
Показать сообщения за:  Поле сортировки  
Начать новую тему Ответить на тему

   Похожие торренты   Автор   Ответы   Просмотры   Последнее сообщение 
В этой теме нет новых непрочитанных сообщений. Скачать торрент Проверен [iPhone] Риддик - Трилогия / Riddick Trilogy (Дэвид Туи, Питер Чунг) [ужасы, фантастика, триллер, приключения,HDRip,BDRip, DVDRip]

в форуме Фильмы для iPod, iPhone, iPad, Размер: 1.38 ГБ, Здоровье: 100%

Anonymous

0
48|3

47
2

14 май 2015, 00:02

Anonymous Перейти к последнему сообщению

В этой теме нет новых непрочитанных сообщений. Скачать торрент Проверен [iPhone] Оно / It (Томми Ли Уоллес) [1990 г., ужасы, триллер, фэнтези, комедия, драма, приключения, детектив, DVDRip]

в форуме Фильмы для iPod, iPhone, iPad, Размер: 977.23 МБ, Здоровье: 100%

Гость

0
1|0

33
0

18 май 2015, 10:38

Гость Перейти к последнему сообщению

В этой теме нет новых непрочитанных сообщений. Скачать торрент Конец света / End of Days (Питер Хайамс / Peter Hyams) [1999 г., ужасы, боевик, триллер, BDRip] Dub

в форуме Ужасы, Размер: 1.46 ГБ, Здоровье: 100%

Anonymous

0
2|0

42
2

02 янв 2014, 00:10

Anonymous Перейти к последнему сообщению

В этой теме нет новых непрочитанных сообщений. Скачать торрент Поезд дальше не идет / Stag Night (Питер А. Даулинг / Peter A. Dowling) [2008, США, триллер, ужасы, BDRip]

в форуме Ужасы, Размер: 1.46 ГБ, Здоровье: 0%

Anonymous

0
0|0

44
0

17 фев 2014, 11:45

Anonymous Перейти к последнему сообщению

В этой теме нет новых непрочитанных сообщений. Скачать торрент Напряги извилины / Get Smart (Питер Сигал / Peter Segal) [2008 г., Боевик, триллер, комедия, криминал, детектив, BDRip-AVC]

в форуме Боевики, Размер: 2.04 ГБ, Здоровье: 100%

Anonymous

0
26|8

41
1

17 фев 2014, 08:04

Anonymous Перейти к последнему сообщению



Сейчас этот форум просматривают: нет зарегистрированных пользователей и гости: 1


Вы не можете начинать темы
Вы не можете отвечать на сообщения
Вы не можете редактировать свои сообщения
Вы не можете удалять свои сообщения
Вы не можете добавлять вложения

Перейти:  

!ВНИМАНИЕ!
 Ресурс не предоставляет электронные версии произведений, а занимается лишь коллекционированием и каталогизацией ссылок, присылаемых и публикуемых на форуме нашими читателями. Если вы являетесь правообладателем какого-либо представленного материала и не желаете чтобы ссылка на него находилась в нашем каталоге, свяжитесь с нами и мы незамедлительно удалим её. Файлы для обмена на трекере предоставлены пользователями сайта, и администрация не несёт ответственности за их содержание. Просьба не заливать файлы, защищенные авторскими правами, а также файлы нелегального содержания!