На всех торрентах на трекере установлена скидка на скачивание в размере 100 процентов(а).
 Возможность скачивания торрента НЕ зависит от ограничений при низком ратио, низком аплоаде, требуемом ратио или требуемом аплоаде.


Начать новую тему Ответить на тему
Статистика раздачи
Размер: 7.75 ГБ | Добавлен: 27 сен 2014, 19:52 | Скачали: 305
Сидеров: 15  [0 байт/сек]    Личеров: 5  [0 байт/сек]
Пред. тема | След. тема 

Автор
Сообщение

СообщениеДобавлено: 27 сен 2014, 19:52 

Название: Кровавый спорт
Оригинальное название: Bloodsport
Год выхода: 1988
Жанр: боевик, биография, спорт
Режиссер: Ньют Арнольд

В ролях: Жан-Клод Ван Дамм, Дональд Гибб, Леа Эйрс, Норман Бёртон, Форест Уитакер, Боло Йенг, Рой Чяо, Филип Чан, Пьер Рафини, Кен Сиу

О фильме:
В Гонконге должны состояться подпольные соревнования по восточным единоборствам, к которым готовится и один из американских военнослужащих. В свое время, будучи ребенком, он стал приемным сыном японца- учителя каратэ, достиг совершенства путем упорных тренировок и в знак успеха получил священный японский меч.
Он самовольно оставляет воинскую часть и отправляется в Гонконг на «Кумите». По следам молодого человека идет ФБР. Несмотря на все преграды, возникающие на пути каратиста, ему удается добиться победы и вступить в Братство Черного Дракона…



Автор рипа: Hatfield..

Страна: США
Продолжительность: 1:32:13
Перевод: Профессиональный (многоголосый,закадровый)

Кодек: x264
Качество: BDRip (Оригинал: Blu-ray Disc)
Видео: 1920x1080 (1,78:1), 23.976 fps, 11.4 Mbps
Звук: AC-3, 2 ch, 640 Kbps
Скачать: Сэмпл
General
Unique ID : 216488819307330304542756096827181566781 (0xA2DE3ADF810F34ADABD635BA35AD0B3D)
Complete name :Bloodsport.1988.mkv
Format : Matroska
File size : 7.75 GiB
Duration : 1h 32mn
Overall bit rate : 12.0 Mbps
Movie name : Bloodsport.1988
Encoded date : UTC 2013-02-23 18:30:43
Writing application : mkvmerge v5.8.0 ('No Sleep / Pillow') built on Sep 2 2012 15:37:04
Writing library : libebml v1.2.3 + libmatroska v1.3.0
Video #1
ID : 1
Format : AVC
Format/Info : Advanced Video Codec
Format profile : High@L4.1
Format settings, CABAC : Yes
Format settings, ReFrames : 4 frames
Codec ID : V_MPEG4/ISO/AVC
Duration : 1h 32mn
Bit rate : 11.4 Mbps
Width : 1 920 pixels
Height : 1 080 pixels
Display aspect ratio : 16:9
Frame rate : 23.976 fps
Color space : YUV
Chroma subsampling : 4:2:0
Bit depth : 8 bits
Scan type : Progressive
Bits/(Pixel*Frame) : 0.229
Stream size : 7.18 GiB (93%)
Title : Hatfield..
Writing library : x264 core 129 r2245 bc13772
Encoding settings : cabac=1 / ref=4 / deblock=1:-3:-3 / analyse=0x3:0x113 / me=umh / subme=11 / psy=1 / psy_rd=1.00:0.10 / mixed_ref=1 / me_range=32 / chroma_me=1 / trellis=2 / 8x8dct=1 / cqm=0 / deadzone=21,11 / fast_pskip=0 / chroma_qp_offset=-3 / threads=9 / lookahead_threads=1 / sliced_threads=0 / nr=0 / decimate=0 / interlaced=0 / bluray_compat=0 / constrained_intra=0 / bframes=5 / b_pyramid=2 / b_adapt=2 / b_bias=0 / direct=3 / weightb=1 / open_gop=0 / weightp=2 / keyint=240 / keyint_min=23 / scenecut=40 / intra_refresh=0 / rc=2pass / mbtree=0 / bitrate=11400 / ratetol=1.0 / qcomp=0.60 / qpmin=0 / qpmax=69 / qpstep=4 / cplxblur=20.0 / qblur=0.5 / ip_ratio=1.40 / pb_ratio=1.30 / aq=1:0.80
Language : English

Audio #2
ID : 2
Format : AC-3
Format/Info : Audio Coding 3
Mode extension : CM (complete main)
Codec ID : A_AC3
Duration : 1h 32mn
Bit rate mode : Constant
Bit rate : 640 Kbps
Channel(s) : 2 channels
Channel positions : Front: L R
Sampling rate : 48.0 KHz
Bit depth : 16 bits
Compression mode : Lossy
Stream size : 422 MiB (5%)
Title : Профессиональный (многоголосый,закадровый)
Language : Russian

Menu
00:00:00.000 : :Chapter 01
00:03:00.638 : :Chapter 02
00:04:21.719 : :Chapter 03
00:10:35.926 : :Chapter 04
00:17:39.099 : :Chapter 05
00:20:39.196 : :Chapter 06
00:25:02.000 : :Chapter 07
00:28:04.432 : :Chapter 08
00:31:27.969 : :Chapter 09
00:35:44.642 : :Chapter 10
00:42:15.824 : :Chapter 11
00:44:16.278 : :Chapter 12
00:47:58.292 : :Chapter 13
00:52:30.522 : :Chapter 14
01:00:14.402 : :Chapter 15
01:02:42.592 : :Chapter 16
01:07:05.730 : :Chapter 17
01:09:27.246 : :Chapter 18
01:12:52.368 : :Chapter 19
01:15:17.638 : :Chapter 20
01:21:36.141 : :Chapter 21
01:25:21.366 : :Chapter 22
01:27:53.935 : :Chapter 23
01:32:13.319 : :Chapter 24
x264 [info]: frame I:1024 Avg QP:19.21 size:169712
x264 [info]: frame P:34681 Avg QP:21.60 size: 92295
x264 [info]: frame B:96968 Avg QP:23.63 size: 46438
загрузка...
Правила, инструкции, FAQ!!!
Торрент  Добавлен [27 сен 2014, 19:52] Скачать торрент
Скачать торрент
[ Размер 39.25 КБ / Просмотров 9 ]

Статус
Проверен 
 
Размер  7.75 ГБ
Приватный: Нет (DHT включён)
.torrent скачан  305
Как залить торрент? | Как скачать Torrent? | Как смотреть и слушать онлайн?  


     Отправить личное сообщение
   
Страница 1 из 1
Показать сообщения за:  Поле сортировки  
Начать новую тему Ответить на тему

   Похожие торренты   Автор   Ответы   Просмотры   Последнее сообщение 
В этой теме нет новых непрочитанных сообщений. Скачать торрент Проверен Кровавый спорт / Bloodsport (1988) BDRip 720p | P, P2, A

в форуме 720p | 1080p, Размер: 5.97 ГБ, Здоровье: 50%

Anonymous

0
9|18

16
16

27 сен 2014, 19:46

Anonymous Перейти к последнему сообщению

В этой теме нет новых непрочитанных сообщений. Скачать торрент Проверен Кровавый спорт / Bloodsport (1988) HDRip | P

в форуме Боевики, Размер: 1.45 ГБ, Здоровье: 100%

Anonymous

0
151|9

31
473

27 сен 2014, 19:48

Anonymous Перейти к последнему сообщению

В этой теме нет новых непрочитанных сообщений. Скачать торрент Кровавый алмаз / Blood Diamond (2006) BDRip 1080p

в форуме 720p | 1080p, Размер: 11.3 ГБ, Здоровье: 100%

Anonymous

0
22|15

31
148

06 фев 2014, 18:53

Anonymous Перейти к последнему сообщению

В этой теме нет новых непрочитанных сообщений. Скачать торрент Проверен (Hardcore / Horror-Punk) Собачье Сердце - Кровавый спорт - 2016, MP3, 320 kbps

в форуме Русский Рок, Размер: 55.61 МБ, Здоровье: 100%

Anonymous

0
11|0

3
1

21 авг 2016, 14:19

Anonymous Перейти к последнему сообщению

В этой теме нет новых непрочитанных сообщений. Скачать торрент Полупрофессионал / Semi-Pro [Unrated] (Кент Альтерман) [1080p] [2008 г., комедия, спорт, BDRip]

в форуме 720p | 1080p, Размер: 8.26 ГБ, Здоровье: 0%

Anonymous

0
0|0

19
1

25 фев 2014, 22:41

Anonymous Перейти к последнему сообщению



Сейчас этот форум просматривают: нет зарегистрированных пользователей и гости: 1


Вы не можете начинать темы
Вы не можете отвечать на сообщения
Вы не можете редактировать свои сообщения
Вы не можете удалять свои сообщения
Вы не можете добавлять вложения

Перейти:  

!ВНИМАНИЕ!
 Ресурс не предоставляет электронные версии произведений, а занимается лишь коллекционированием и каталогизацией ссылок, присылаемых и публикуемых на форуме нашими читателями. Если вы являетесь правообладателем какого-либо представленного материала и не желаете чтобы ссылка на него находилась в нашем каталоге, свяжитесь с нами и мы незамедлительно удалим её. Файлы для обмена на трекере предоставлены пользователями сайта, и администрация не несёт ответственности за их содержание. Просьба не заливать файлы, защищенные авторскими правами, а также файлы нелегального содержания!