На всех торрентах на трекере установлена скидка на скачивание в размере 100 процентов(а).
 Возможность скачивания торрента НЕ зависит от ограничений при низком ратио, низком аплоаде, требуемом ратио или требуемом аплоаде.


Начать новую тему Ответить на тему
Статистика раздачи
Размер: 5.97 ГБ | Добавлен: 27 сен 2014, 19:46 | Скачали: 16
Сидеров: 9  [0 байт/сек]    Личеров: 18  [0 байт/сек]
Пред. тема | След. тема 

Автор
Сообщение

СообщениеДобавлено: 27 сен 2014, 19:46 

Название: Кровавый спорт
Оригинальное название: Bloodsport
Год выпуска: 1988
Жанр: Боевик, драма, биография, спорт
Выпущено: США, Cannon International
Режиссер: Ньют Арнольд

В ролях: Жан-Клод Ван Дамм, Боло Йенг, Форест Уитакер, Дональд Гибб, Леа Эйрс, Норман Бёртон, Рой Чяо, Филип Чань, Пьер Рафини, Кен Сиу, Кимо Лаи Квок Ки, Бернард Мариано, Билл Юэнь Пинг Куэнь, Лили Люн, Джошуа Шродер, Кит Дэвей, Шон Уорд, Джонни Лаи, Генри Хо, Генри Кот, Томас Лам, Саймон Лаи, А.П. Джордж, Чарльз Ванг, Джон Фостер, Джон Чунг, Дэннис Чи, Мишель Кисси, Натан Чкуэк, Джофф Браун, Дэвид Хо, Эрик Нефф, Майкл Чан, Рик Эриксон, Джон Ло, Самсон Ли, Пауло Тока, Грег Ричардсон, Сахид Сахабуддин, Рокки Джасминдер Сингх, Уилсон Ли, Марк ДиСалле, Эдвард Э. Кеттерер, Кен Бойл, Марк Уилхаус, Уэйн Моррис, Даррен Хамфри, Том Там, Клод Хэм, Сьюзан Ширс, Мэнди Чан

О фильме: В Гонконге должны состояться подпольные соревнования по восточным единоборствам, к которым готовится и один из американских военнослужащих. В свое время, будучи ребёнком, он стал приёмным сыном японца - учителя каратэ, достиг совершенства путём упорных тренировок и, в знак успеха, получил священный японский меч. Он самовольно оставляет воинскую часть и отправляется в Гонконг на «Кумите». По следам молодого человека идёт ФБР. Несмотря на все преграды, возникающие на пути каратиста, ему удаётся добиться победы и вступить в Братство Черного Дракона...

Качество: BDRip 720p

Продолжительность: 01:32:13

Видео: MPEG-4 AVC, 6231 Кбит/с, 1280х720, 23,976 кадра/с, 0.282 bpp
Аудио 1: русский, AC3, 192 kbps, 2 ch, 48 kHz [профессиональный многоголосый]
Аудио 2: русский, AC3, 192 kbps, 2 ch, 48 kHz [профессиональный двухголосый, HTB]
Аудио 3: русский, AC3, 384 kbps, 2 ch, 48 kHz [авторский, Леонид Володарский]
Аудио 4: русский, AC3, 192 kbps, 2 ch, 48 kHz [авторский, Василий Горчаков]
Аудио 5: русский, AC3, 192 kbps, 2 ch, 48 kHz [авторский, Вартан Дохалов]

Отдельные файлы
Аудио: русский, DTS, 768 kbps, 2 ch, 48 kHz [профессиональный многоголосый]
Аудио: русский, DTS, 768 kbps, 2 ch, 48 kHz [авторский, Вартан Дохалов]
Аудио: английский, AC3, 192 kbps, 2 ch, 48 kHz [оригинал]
Субтитры: русские
Субтитры: английские

Имеются неименованные главы/чаптеры.



Общее
Полное имя : D:VideoKrovavyj sport.1988.BDRip.720pKrovavyj sport.1988.AVO.rus.В.Дохалов.dts
Формат : DTS
Формат/Информация : Digital Theater Systems
Размер файла : 507 Мбайт
Продолжительность : 1 ч. 32 м.
Режим общего битрейта : Постоянный
Общий поток : 768 Кбит/сек

Аудио
Формат : DTS
Формат/Информация : Digital Theater Systems
Режим : 16
Параметр Endianness формата : Big
Продолжительность : 1 ч. 32 м.
Вид битрейта : Постоянный
Битрейт : 768 Кбит/сек
Каналы : 2 канала
Расположение каналов : Front: L R
Частота : 48,0 КГц
Битовая глубина : 24 бит
Метод сжатия : С потерями
Размер потока : 507 Мбайт (100%)

Общее
Уникальный идентификатор : 232673628073223650953300415291518679177 (0xAF0B4F8DCE7079D7930FD81B7C94F889)
Полное имя : D:VideoKrovavyj sport.1988.BDRip.720pKrovavyj sport.1988.BDRip.720p.mkv
Формат : Matroska
Версия формата : Version 4 / Version 2
Размер файла : 4,85 Гбайт
Продолжительность : 1 ч. 32 м.
Общий поток : 7533 Кбит/сек
Дата кодирования : UTC 2014-09-27 07:05:28
Программа кодирования : mkvmerge v6.9.1 ('Blue Panther') 64bit built on Apr 18 2014 18:23:38
Библиотека кодирования : libebml v1.3.0 + libmatroska v1.4.1

Видео
Идентификатор : 1
Формат : AVC
Формат/Информация : Advanced Video Codec
Профиль формата : High@L4.1
Параметр CABAC формата : Да
Параметр ReFrames формата : 9 кадров
Идентификатор кодека : V_MPEG4/ISO/AVC
Продолжительность : 1 ч. 32 м.
Битрейт : 6231 Кбит/сек
Ширина : 1280 пикселей
Высота : 720 пикселей
Соотношение сторон : 16:9
Режим частоты кадров : Постоянный
Частота кадров : 23,976 кадра/сек
Цветовое пространство : YUV
Субдискретизация насыщенности : 4:2:0
Битовая глубина : 8 бит
Тип развёртки : Прогрессивная
Бит/(Пиксели*Кадры) : 0.282
Размер потока : 4,01 Гбайт (83%)
Заголовок : BDRip -- STarankov
Библиотека кодирования : x264 core 142 r2431 ac76440
Настройки программы : cabac=1 / ref=9 / deblock=1:-1:-1 / analyse=0x3:0x113 / me=umh / subme=10 / psy=1 / psy_rd=1.00:0.15 / mixed_ref=1 / me_range=32 / chroma_me=1 / trellis=2 / 8x8dct=1 / cqm=0 / deadzone=21,11 / fast_pskip=0 / chroma_qp_offset=-3 / threads=6 / lookahead_threads=1 / sliced_threads=0 / nr=0 / decimate=1 / interlaced=0 / bluray_compat=0 / constrained_intra=0 / bframes=8 / b_pyramid=2 / b_adapt=2 / b_bias=0 / direct=1 / weightb=1 / open_gop=0 / weightp=2 / keyint=230 / keyint_min=23 / scenecut=40 / intra_refresh=0 / rc_lookahead=40 / rc=crf / mbtree=0 / crf=19.5 / qcomp=0.60 / qpmin=0 / qpmax=69 / qpstep=4 / vbv_maxrate=40000 / vbv_bufsize=50000 / crf_max=0.0 / nal_hrd=none / filler=0 / ip_ratio=1.40 / pb_ratio=1.30 / aq=1:1.00
Язык : English
Default : Да
Forced : Нет

Аудио #1
Идентификатор : 2
Формат : AC-3
Формат/Информация : Audio Coding 3
Расширение режима : CM (complete main)
Параметр Endianness формата : Big
Идентификатор кодека : A_AC3
Продолжительность : 1 ч. 32 м.
Вид битрейта : Постоянный
Битрейт : 192 Кбит/сек
Каналы : 2 канала
Расположение каналов : Front: L R
Частота : 48,0 КГц
Битовая глубина : 16 бит
Метод сжатия : С потерями
Размер потока : 127 Мбайт (3%)
Заголовок : MVO
Язык : Russian
Default : Да
Forced : Нет

Аудио #2
Идентификатор : 3
Формат : AC-3
Формат/Информация : Audio Coding 3
Расширение режима : CM (complete main)
Параметр Endianness формата : Big
Идентификатор кодека : A_AC3
Продолжительность : 1 ч. 32 м.
Вид битрейта : Постоянный
Битрейт : 192 Кбит/сек
Каналы : 2 канала
Расположение каналов : Front: L R
Частота : 48,0 КГц
Битовая глубина : 16 бит
Метод сжатия : С потерями
Размер потока : 127 Мбайт (3%)
Заголовок : DVO (HTB)
Язык : Russian
Default : Нет
Forced : Нет

Аудио #3
Идентификатор : 4
Формат : AC-3
Формат/Информация : Audio Coding 3
Расширение режима : CM (complete main)
Параметр Endianness формата : Big
Идентификатор кодека : A_AC3
Продолжительность : 1 ч. 32 м.
Вид битрейта : Постоянный
Битрейт : 384 Кбит/сек
Каналы : 2 канала
Расположение каналов : Front: L R
Частота : 48,0 КГц
Битовая глубина : 16 бит
Метод сжатия : С потерями
Размер потока : 253 Мбайт (5%)
Заголовок : AVO (Леонид Володарский)
Язык : Russian
Default : Нет
Forced : Нет

Аудио #4
Идентификатор : 5
Формат : AC-3
Формат/Информация : Audio Coding 3
Расширение режима : CM (complete main)
Параметр Endianness формата : Big
Идентификатор кодека : A_AC3
Продолжительность : 1 ч. 32 м.
Вид битрейта : Постоянный
Битрейт : 192 Кбит/сек
Каналы : 2 канала
Расположение каналов : Front: L R
Частота : 48,0 КГц
Битовая глубина : 16 бит
Метод сжатия : С потерями
Размер потока : 127 Мбайт (3%)
Заголовок : AVO (Василий Горчаков)
Язык : Russian
Default : Нет
Forced : Нет

Аудио #5
Идентификатор : 6
Формат : AC-3
Формат/Информация : Audio Coding 3
Расширение режима : CM (complete main)
Параметр Endianness формата : Big
Идентификатор кодека : A_AC3
Продолжительность : 1 ч. 32 м.
Вид битрейта : Постоянный
Битрейт : 192 Кбит/сек
Каналы : 2 канала
Расположение каналов : Front: L R
Частота : 48,0 КГц
Битовая глубина : 16 бит
Метод сжатия : С потерями
Размер потока : 127 Мбайт (3%)
Заголовок : AVO (Вартан Дохалов)
Язык : Russian
Default : Нет
Forced : Нет

Меню
00:00:00.000 : :Chapter 01
00:03:00.638 : :Chapter 02
00:04:21.719 : :Chapter 03
00:10:35.925 : :Chapter 04
00:17:39.099 : :Chapter 05
00:20:39.195 : :Chapter 06
00:25:02.000 : :Chapter 07
00:28:04.431 : :Chapter 08
00:31:27.969 : :Chapter 09
00:35:44.641 : :Chapter 10
00:42:15.824 : :Chapter 11
00:44:16.277 : :Chapter 12
00:47:58.292 : :Chapter 13
00:52:30.522 : :Chapter 14
01:00:14.402 : :Chapter 15
01:02:42.592 : :Chapter 16
01:07:05.729 : :Chapter 17
01:09:27.246 : :Chapter 18
01:12:52.368 : :Chapter 19
01:15:17.638 : :Chapter 20
01:21:36.140 : :Chapter 21
01:25:21.366 : :Chapter 22
01:27:53.935 : :Chapter 23
01:32:13.319 : :Chapter 24

Общее
Полное имя : D:VideoKrovavyj sport.1988.BDRip.720pKrovavyj sport.1988.eng.srt
Формат : SubRip
Размер файла : 42,1 Кбайт

Текст
Формат : SubRip
Метод сжатия : Без потерь

Общее
Полное имя : D:VideoKrovavyj sport.1988.BDRip.720pKrovavyj sport.1988.MVO.rus.dts
Формат : DTS
Формат/Информация : Digital Theater Systems
Размер файла : 507 Мбайт
Продолжительность : 1 ч. 32 м.
Режим общего битрейта : Постоянный
Общий поток : 768 Кбит/сек

Аудио
Формат : DTS
Формат/Информация : Digital Theater Systems
Режим : 16
Параметр Endianness формата : Big
Продолжительность : 1 ч. 32 м.
Вид битрейта : Постоянный
Битрейт : 768 Кбит/сек
Каналы : 2 канала
Расположение каналов : Front: L R
Частота : 48,0 КГц
Битовая глубина : 24 бит
Метод сжатия : С потерями
Размер потока : 507 Мбайт (100%)

Общее
Полное имя : D:VideoKrovavyj sport.1988.BDRip.720pKrovavyj sport.1988.Original.eng.ac3
Формат : AC-3
Формат/Информация : Audio Coding 3
Размер файла : 127 Мбайт
Продолжительность : 1 ч. 32 м.
Режим общего битрейта : Постоянный
Общий поток : 192 Кбит/сек

Аудио
Формат : AC-3
Формат/Информация : Audio Coding 3
Расширение режима : CM (complete main)
Параметр Endianness формата : Big
Продолжительность : 1 ч. 32 м.
Вид битрейта : Постоянный
Битрейт : 192 Кбит/сек
Каналы : 2 канала
Расположение каналов : Front: L R
Частота : 48,0 КГц
Битовая глубина : 16 бит
Метод сжатия : С потерями
Размер потока : 127 Мбайт (100%)

Общее
Полное имя : D:VideoKrovavyj sport.1988.BDRip.720pKrovavyj sport.1988.rus.srt
Формат : SubRip
Размер файла : 43,6 Кбайт

Текст
Формат : SubRip
Метод сжатия : Без потерь

загрузка...
Правила, инструкции, FAQ!!!
Торрент  Добавлен [27 сен 2014, 19:46] Скачать торрент
Скачать торрент
[ Размер 30.71 КБ / Просмотров 11 ]

Статус
Проверен 
 
Размер  5.97 ГБ
Приватный: Нет (DHT включён)
.torrent скачан  16
Как залить торрент? | Как скачать Torrent? | Как смотреть и слушать онлайн?  


     Отправить личное сообщение
   
Страница 1 из 1
Показать сообщения за:  Поле сортировки  
Начать новую тему Ответить на тему

   Похожие торренты   Автор   Ответы   Просмотры   Последнее сообщение 
В этой теме нет новых непрочитанных сообщений. Скачать торрент Проверен Кровавый спорт / Bloodsport (1988) BDRip 1080p

в форуме 720p | 1080p, Размер: 7.75 ГБ, Здоровье: 100%

Anonymous

0
15|5

24
305

27 сен 2014, 19:52

Anonymous Перейти к последнему сообщению

В этой теме нет новых непрочитанных сообщений. Скачать торрент Проверен Кровавый спорт / Bloodsport (1988) HDRip | P

в форуме Боевики, Размер: 1.45 ГБ, Здоровье: 100%

Anonymous

0
151|9

32
473

27 сен 2014, 19:48

Anonymous Перейти к последнему сообщению

В этой теме нет новых непрочитанных сообщений. Скачать торрент Кровавый четверг / Thursday (1998) BDRip 720p

в форуме 720p | 1080p, Размер: 4.28 ГБ, Здоровье: 100%

Anonymous

0
16|3

29
116

25 дек 2013, 18:22

Anonymous Перейти к последнему сообщению

В этой теме нет новых непрочитанных сообщений. Скачать торрент Кровавый ледник / Blutgletscher / Schlaraffenhaus (2013) BDRip 720p | L1

в форуме 720p | 1080p, Размер: 2.67 ГБ, Здоровье: 0%

Anonymous

0
0|0

33
1

17 мар 2014, 14:29

Anonymous Перейти к последнему сообщению

В этой теме нет новых непрочитанных сообщений. Скачать торрент Проверен Кровавый алмаз / Blood Diamond (2006) BDRip 720p

в форуме 720p | 1080p, Размер: 7.84 ГБ, Здоровье: 100%

Anonymous

0
24|6

35
136

15 ноя 2014, 15:40

Anonymous Перейти к последнему сообщению



Сейчас этот форум просматривают: нет зарегистрированных пользователей и гости: 1


Вы не можете начинать темы
Вы не можете отвечать на сообщения
Вы не можете редактировать свои сообщения
Вы не можете удалять свои сообщения
Вы не можете добавлять вложения

Перейти:  

!ВНИМАНИЕ!
 Ресурс не предоставляет электронные версии произведений, а занимается лишь коллекционированием и каталогизацией ссылок, присылаемых и публикуемых на форуме нашими читателями. Если вы являетесь правообладателем какого-либо представленного материала и не желаете чтобы ссылка на него находилась в нашем каталоге, свяжитесь с нами и мы незамедлительно удалим её. Файлы для обмена на трекере предоставлены пользователями сайта, и администрация не несёт ответственности за их содержание. Просьба не заливать файлы, защищенные авторскими правами, а также файлы нелегального содержания!