На всех торрентах на трекере установлена скидка на скачивание в размере 100 процентов(а).
 Возможность скачивания торрента НЕ зависит от ограничений при низком ратио, низком аплоаде, требуемом ратио или требуемом аплоаде.


Начать новую тему Ответить на тему
Статистика раздачи
Размер: 3.35 ГБ | Добавлен: 27 сен 2014, 19:36 | Скачали: 48
Сидеров: 19  [0 байт/сек]    Личеров: 6  [0 байт/сек]
Пред. тема | След. тема 

Автор
Сообщение

СообщениеДобавлено: 27 сен 2014, 19:36 

Название: Вечеринка
Оригинальное название: The Party
Год выпуска: 1968
Жанр: Kомедия
Выпущено: США, Mirisch-Geoffrey Productions, The Mirisch Corporation
Режиссер: Блэйк Эдвардс
В ролях: Питер Селлерс, Клодин Лонже, Мардж Чэмпион, Фэй МакКензи, Стив Фрэнкен, Бадди Лестер, Денни Миллер, Гэвин МакЛауд, Кэрол Уэйн, Дик Крокетт, Фрэнсис Дэвис, Даниэль Де Мец

О фильме: Мистера Хрунди Ви Бакши пригласили сниматься в кино. Он был слегка рассеян и случайно наступил на рычаг, что привело к взрыву дорогостоящей декорации крепости. Приглашение на ужин, которое так же случайно пришло на его адрес, приводит Бакши в дом директора пострадавшей киностудии. В этом шикарном особняке с бассейном и садом начинается «замечательная» вечеринка, о которой никогда не забудут все её участники...

Качество: BDRip 720p
Видео: MPEG-4 AVC, 4363 Кбит/с, 1280x546, 23,976 кадра/с, 0.260 bpp
Аудио: Русский, английский (AC3, 2 ch, 192 Кбит/с)

Продолжительность: 01:39:04
Перевод: Профессиональный многоголосый
Субтитры: английские



Общее
Уникальный идентификатор : 205386869038920965386467725627995879463 (0x9A841276E38B1E5CAEB5F7D1E2F27827)
Полное имя : D:VideoVecherinka.1968.BDRip.720p.mkv
Формат : Matroska
Версия формата : Version 4 / Version 2
Размер файла : 3,35 Гбайт
Продолжительность : 1 ч. 39 м.
Общий поток : 4843 Кбит/сек
Дата кодирования : UTC 2014-09-26 13:27:35
Программа кодирования : mkvmerge v6.9.1 ('Blue Panther') 64bit built on Apr 18 2014 18:23:38
Библиотека кодирования : libebml v1.3.0 + libmatroska v1.4.1

Видео
Идентификатор : 1
Формат : AVC
Формат/Информация : Advanced Video Codec
Профиль формата : High@L4.1
Параметр CABAC формата : Да
Параметр ReFrames формата : 9 кадров
Идентификатор кодека : V_MPEG4/ISO/AVC
Продолжительность : 1 ч. 39 м.
Битрейт : 4363 Кбит/сек
Ширина : 1280 пикселей
Высота : 546 пикселей
Соотношение сторон : 2,35:1
Режим частоты кадров : Постоянный
Частота кадров : 23,976 кадра/сек
Цветовое пространство : YUV
Субдискретизация насыщенности : 4:2:0
Битовая глубина : 8 бит
Тип развёртки : Прогрессивная
Бит/(Пиксели*Кадры) : 0.260
Размер потока : 3,02 Гбайт (90%)
Заголовок : BDRip -- STarankov
Библиотека кодирования : x264 core 142 r2431 ac76440
Настройки программы : cabac=1 / ref=9 / deblock=1:-1:-1 / analyse=0x3:0x113 / me=umh / subme=10 / psy=1 / psy_rd=1.00:0.15 / mixed_ref=1 / me_range=32 / chroma_me=1 / trellis=2 / 8x8dct=1 / cqm=0 / deadzone=21,11 / fast_pskip=0 / chroma_qp_offset=-3 / threads=6 / lookahead_threads=1 / sliced_threads=0 / nr=0 / decimate=1 / interlaced=0 / bluray_compat=0 / constrained_intra=0 / bframes=8 / b_pyramid=2 / b_adapt=2 / b_bias=0 / direct=1 / weightb=1 / open_gop=0 / weightp=2 / keyint=230 / keyint_min=23 / scenecut=40 / intra_refresh=0 / rc_lookahead=40 / rc=crf / mbtree=0 / crf=20.0 / qcomp=0.60 / qpmin=0 / qpmax=69 / qpstep=4 / vbv_maxrate=40000 / vbv_bufsize=50000 / crf_max=0.0 / nal_hrd=none / filler=0 / ip_ratio=1.40 / pb_ratio=1.30 / aq=1:1.00
Язык : English
Default : Да
Forced : Нет

Аудио #1
Идентификатор : 2
Формат : AC-3
Формат/Информация : Audio Coding 3
Расширение режима : CM (complete main)
Параметр Endianness формата : Big
Идентификатор кодека : A_AC3
Продолжительность : 1 ч. 39 м.
Вид битрейта : Постоянный
Битрейт : 192 Кбит/сек
Каналы : 2 канала
Расположение каналов : Front: L R
Частота : 48,0 КГц
Битовая глубина : 16 бит
Метод сжатия : С потерями
Размер потока : 136 Мбайт (4%)
Заголовок : MVO
Язык : Russian
Default : Да
Forced : Нет

Аудио #2
Идентификатор : 3
Формат : AC-3
Формат/Информация : Audio Coding 3
Расширение режима : CM (complete main)
Параметр Endianness формата : Big
Идентификатор кодека : A_AC3
Продолжительность : 1 ч. 39 м.
Вид битрейта : Постоянный
Битрейт : 192 Кбит/сек
Каналы : 2 канала
Расположение каналов : Front: L R
Частота : 48,0 КГц
Битовая глубина : 16 бит
Метод сжатия : С потерями
Размер потока : 136 Мбайт (4%)
Заголовок : Original
Язык : English
Default : Нет
Forced : Нет

Текст
Идентификатор : 4
Формат : UTF-8
Идентификатор кодека : S_TEXT/UTF8
Идентификатор кодека/Информация : UTF-8 Plain Text
Заголовок : английский
Язык : English
Default : Нет
Forced : Нет

Меню
00:00:00.000 : :Chapter 01
00:07:18.311 : :Chapter 02
00:16:05.464 : :Chapter 03
00:37:07.974 : :Chapter 04
00:49:40.101 : :Chapter 05
01:01:08.706 : :Chapter 06
01:18:51.768 : :Chapter 07
01:33:08.747 : :Chapter 08
01:39:03.145 : :Chapter 09

загрузка...
Правила, инструкции, FAQ!!!
Торрент  Добавлен [27 сен 2014, 19:36] Скачать торрент
Скачать торрент
[ Размер 17.25 КБ / Просмотров 7 ]

Статус
Проверен 
 
Размер  3.35 ГБ
Приватный: Нет (DHT включён)
.torrent скачан  48
Как залить торрент? | Как скачать Torrent? | Как смотреть и слушать онлайн?  


     Отправить личное сообщение
   
Страница 1 из 1
Показать сообщения за:  Поле сортировки  
Начать новую тему Ответить на тему

   Похожие торренты   Автор   Ответы   Просмотры   Последнее сообщение 
В этой теме нет новых непрочитанных сообщений. Скачать торрент Проверен Вечеринка / The Party (1968) BDRip | P

в форуме Комедии, Размер: 1.36 ГБ, Здоровье: 100%

Anonymous

0
15|13

28
68

27 сен 2014, 19:34

Anonymous Перейти к последнему сообщению

В этой теме нет новых непрочитанных сообщений. Скачать торрент Проверен Прощальная вечеринка / House Party: Tonight’s the Night (2013) HDTVRip 720p от MediaClub | P

в форуме 720p | 1080p, Размер: 2.21 ГБ, Здоровье: 100%

Anonymous

0
48|0

34
1684

17 авг 2014, 15:36

Anonymous Перейти к последнему сообщению

В этой теме нет новых непрочитанных сообщений. Скачать торрент Проверен Прощальная вечеринка / House Party: Tonight’s the Night (2013) HDTVRip-AVC | P

в форуме Комедии, Размер: 1.39 ГБ, Здоровье: 100%

Anonymous

0
39|0

53
1

15 авг 2014, 21:39

Anonymous Перейти к последнему сообщению

В этой теме нет новых непрочитанных сообщений. Скачать торрент Проверен Open Season Party / Сезон охоты. Вечеринка у Буга [L] [RUS] (2006)

в форуме Детские, Размер: 708.27 МБ, Здоровье: 100%

Anonymous

0
6|1

213
2

31 янв 2015, 20:34

Anonymous Перейти к последнему сообщению

В этой теме нет новых непрочитанных сообщений. Скачать торрент Проверен (Rock) The Velvet Underground - Boston Tea Party (The Professor Tapes Volume One) - 12.12.1968 [Reel To Feel Records] - 1968, FLAC (tracks), lossless

в форуме Classic Rock & Hard Rock, Размер: 456.16 МБ, Здоровье: 100%

Anonymous

0
1|0

2
0

03 сен 2016, 13:00

Anonymous Перейти к последнему сообщению



Сейчас этот форум просматривают: нет зарегистрированных пользователей и гости: 4


Вы не можете начинать темы
Вы не можете отвечать на сообщения
Вы не можете редактировать свои сообщения
Вы не можете удалять свои сообщения
Вы не можете добавлять вложения

Перейти:  

!ВНИМАНИЕ!
 Ресурс не предоставляет электронные версии произведений, а занимается лишь коллекционированием и каталогизацией ссылок, присылаемых и публикуемых на форуме нашими читателями. Если вы являетесь правообладателем какого-либо представленного материала и не желаете чтобы ссылка на него находилась в нашем каталоге, свяжитесь с нами и мы незамедлительно удалим её. Файлы для обмена на трекере предоставлены пользователями сайта, и администрация не несёт ответственности за их содержание. Просьба не заливать файлы, защищенные авторскими правами, а также файлы нелегального содержания!