На всех торрентах на трекере установлена скидка на скачивание в размере 100 процентов(а).
 Возможность скачивания торрента НЕ зависит от ограничений при низком ратио, низком аплоаде, требуемом ратио или требуемом аплоаде.


Начать новую тему Ответить на тему
Статистика раздачи
Размер: 3.59 ГБ | Добавлен: 26 сен 2014, 21:16 | Скачали: 470
Сидеров: 42  [0 байт/сек]    Личеров: 3  [0 байт/сек]
Пред. тема | След. тема 

Автор
Сообщение

СообщениеДобавлено: 26 сен 2014, 21:16 


Страна: Франция / Leuviah Films, Thelma Films

Жанр: драма, история, спорт
Год выпуска: 2014
Продолжительность: 01:49:41

Перевод: Профессиональный (дублированный)
Cубтитры: нет
Оригинальная аудиодорожка: английский

Режиссер: Фредерик Обюртен / Frédéric Auburtin

В ролях: Джемайма Уэст, Тим Рот, Сэм Нил, Томас Кречман, Жерар Депардье, Фишер Стивенс, Мартин Джарвис, Джейсон Бэрри, Энтони Хиггинс, Ричард Диллэйн...

Роли дублировали: Елена Шульман, Дмитрий Губерниев, Игорь Старосельцев, Владислав Копп, Алексей Колган...

Описание: В начале 20-го века несколько энтузиастов из разных европейских стран решили совместно реализовать амбициозную мечту — создать футбольную организацию, которая объединила бы весь мир! Они назвали ее Международная федерация по футболу или коротко — FIFA… В основе фильма лежит интригующая и несколько скандальная история, основанная на реальных событиях, о возникновении Кубка мира по футболу и трех одержимых людях, способствовавших его проведению. Жюль Риме, Авеланж Жоао и ныне действующий президент FIFA Йозеф «Зепп» Блаттер — три столь разных человека жили в разное время в разных странах. Они наживали врагов, шли на компромиссы, становились жертвами предательства — но они сделали все, чтобы Чемпионат мира по футболу стал реальностью. Эта более чем вековая история прославляет игру, которая, несмотря ни на что, стала не только Всемирным Спортом, но и олицетворением Надежды, Силы духа и Единства.



Качество: WEB-DL 720p / DVD5 R5 - лицензионный диск от CD Land + l1g4.M34tu.2014.D.WEB-DL.720p.mkv
Формат: MKV

Видео: 1280x532 (2.40:1), MPEG-4 AVC 3761 Кбит/сек / 24.000 fps / Бит/(Пиксели*Кадры) : 0.230
Аудио 1: AC3 448 kbps / 5.1 ch / 48 kHz русский
Аудио 2: AC3 384 kbps / 5.1 ch / 48 kHz английский

Дополнительно: Фильм разбит на главы.

Раздача от:
Общее
Полное имя : Liga.mechty.2014.D.WEB-DL.720p.mkv
Формат : Matroska
Версия формата : Version 4 / Version 2
Размер файла : 3,59 Гбайт
Продолжительность : 1 ч. 49 м.
Общий поток : 4686 Кбит/сек
Дата кодирования : UTC 2014-09-06 13:21:46
Программа кодирования : mkvmerge v7.1.0 ('Good Love') 64bit built on Jul 27 2014 13:06:55
Библиотека кодирования : libebml v1.3.0 + libmatroska v1.4.1
_STATISTICS_WRITING_APP : mkvmerge v7.1.0 ('Good Love') 64bit built on Jul 27 2014 13:06:55
_STATISTICS_WRITING_DATE_UTC : 2014-09-06 13:21:46
_STATISTICS_TAGS : BPS DURATION NUMBER_OF_FRAMES NUMBER_OF_BYTES
DURATION : 01:49:40.384000000
NUMBER_OF_FRAMES : 205637
NUMBER_OF_BYTES : 368501504

Видео
Идентификатор : 1
Формат : AVC
Формат/Информация : Advanced Video Codec
Профиль формата : Main@L3.1
Параметр CABAC формата : Нет
Параметр ReFrames формата : 2 кадра
Идентификатор кодека : V_MPEG4/ISO/AVC
Продолжительность : 1 ч. 49 м.
Битрейт : 3761 Кбит/сек
Ширина : 1280 пикселей
Высота : 532 пикселя
Соотношение сторон : 2,40:1
Режим частоты кадров : Постоянный
Частота кадров : 24,000 кадра/сек
Цветовое пространство : YUV
Субдискретизация насыщенности : 4:2:0
Битовая глубина : 8 бит
Тип развёртки : Прогрессивная
Бит/(Пиксели*Кадры) : 0.230
Размер потока : 2,88 Гбайт (80%)
Язык : English
Default : Да
Forced : Нет
Основные цвета : BT.709
Характеристики трансфера : BT.709
Коэффициенты матрицы : BT.709

Аудио #1
Идентификатор : 2
Формат : AC-3
Формат/Информация : Audio Coding 3
Расширение режима : CM (complete main)
Параметр Endianness формата : Big
Идентификатор кодека : A_AC3
Продолжительность : 1 ч. 49 м.
Вид битрейта : Постоянный
Битрейт : 448 Кбит/сек
Каналы : 6 каналов
Расположение каналов : Front: L C R, Side: L R, LFE
Частота : 48,0 КГц
Битовая глубина : 16 бит
Метод сжатия : С потерями
Размер потока : 351 Мбайт (10%)
Язык : Russian
Default : Да
Forced : Нет

Аудио #2
Идентификатор : 3
Формат : AC-3
Формат/Информация : Audio Coding 3
Расширение режима : CM (complete main)
Параметр Endianness формата : Big
Идентификатор кодека : A_AC3
Продолжительность : 1 ч. 49 м.
Вид битрейта : Постоянный
Битрейт : 384 Кбит/сек
Каналы : 6 каналов
Расположение каналов : Front: L C R, Side: L R, LFE
Частота : 48,0 КГц
Битовая глубина : 16 бит
Метод сжатия : С потерями
Размер потока : 301 Мбайт (8%)
Язык : English
Default : Нет
Forced : Нет

Меню
00:00:00.000 : en:1
00:10:00.000 : en:2
00:20:00.000 : en:3
00:30:00.000 : en:4
00:40:00.000 : en:5
00:50:00.000 : en:6
01:00:00.000 : en:7
01:10:00.000 : en:8
01:20:00.000 : en:9
01:30:00.000 : en:10


загрузка...
Правила, инструкции, FAQ!!!
Торрент  Добавлен [26 сен 2014, 21:16] Скачать торрент
Скачать торрент
[ Размер 18.64 КБ / Просмотров 9 ]

Статус
Проверен 
 
Размер  3.59 ГБ
Приватный: Нет (DHT включён)
.torrent скачан  470
Как залить торрент? | Как скачать Torrent? | Как смотреть и слушать онлайн?  


     Отправить личное сообщение
   
Страница 1 из 1
Показать сообщения за:  Поле сортировки  
Начать новую тему Ответить на тему

   Похожие торренты   Автор   Ответы   Просмотры   Последнее сообщение 
В этой теме нет новых непрочитанных сообщений. Скачать торрент Проверен Лига мечты / United Passions (2014) WEB-DLRip | Чистый звук

в форуме Драмы, Мелодрамы, Размер: 1.45 ГБ, Здоровье: 100%

Anonymous

0
106|0

38
951

13 июл 2014, 23:03

Anonymous Перейти к последнему сообщению

В этой теме нет новых непрочитанных сообщений. Скачать торрент Проверен Каникулы мечты / What We Did on Our Holiday (2014) BDRip 720p | Лицензия

в форуме 720p | 1080p, Размер: 4.64 ГБ, Здоровье: 100%

Гость

0
267|97

158
165

19 авг 2015, 23:37

Гость Перейти к последнему сообщению

В этой теме нет новых непрочитанных сообщений. Скачать торрент Команда Мечты / Les seigneurs (2012) BDRip 720p | D | Лицензия

в форуме 720p | 1080p, Размер: 4.63 ГБ, Здоровье: 0%

Anonymous

0
0|0

61
0

09 фев 2014, 21:42

Anonymous Перейти к последнему сообщению

В этой теме нет новых непрочитанных сообщений. Скачать торрент Проверен Моя большая испанская семья / La gran familia española / Family United (2013) BDRip 720p | P | Чистый звук

в форуме 720p | 1080p, Размер: 4.44 ГБ, Здоровье: 0%

Anonymous

0
0|0

17
0

20 май 2014, 17:34

Anonymous Перейти к последнему сообщению

В этой теме нет новых непрочитанных сообщений. Скачать торрент Проверен Каникулы мечты / What We Did on Our Holiday (2014) BDRip 1080p | Лицензия

в форуме 720p | 1080p, Размер: 8.01 ГБ, Здоровье: 100%

Гость

0
122|69

150
106

19 авг 2015, 23:39

Гость Перейти к последнему сообщению



Сейчас этот форум просматривают: нет зарегистрированных пользователей и гости: 2


Вы не можете начинать темы
Вы не можете отвечать на сообщения
Вы не можете редактировать свои сообщения
Вы не можете удалять свои сообщения
Вы не можете добавлять вложения

Перейти:  

!ВНИМАНИЕ!
 Ресурс не предоставляет электронные версии произведений, а занимается лишь коллекционированием и каталогизацией ссылок, присылаемых и публикуемых на форуме нашими читателями. Если вы являетесь правообладателем какого-либо представленного материала и не желаете чтобы ссылка на него находилась в нашем каталоге, свяжитесь с нами и мы незамедлительно удалим её. Файлы для обмена на трекере предоставлены пользователями сайта, и администрация не несёт ответственности за их содержание. Просьба не заливать файлы, защищенные авторскими правами, а также файлы нелегального содержания!