На всех торрентах на трекере установлена скидка на скачивание в размере 100 процентов(а).
 Возможность скачивания торрента НЕ зависит от ограничений при низком ратио, низком аплоаде, требуемом ратио или требуемом аплоаде.


Начать новую тему Ответить на тему
Статистика раздачи
Размер: 7.76 ГБ | Добавлен: 24 сен 2014, 19:14 | Скачали: 340
Сидеров: 65  [0 байт/сек]    Личеров: 22  [0 байт/сек]
Пред. тема | След. тема 

Автор
Сообщение

СообщениеДобавлено: 24 сен 2014, 19:14 

Название: Алиса в стране чудес
Оригинальное название: Alice in Wonderland
Год выхода: 2010
Жанр: фэнтези, приключения, семейный
Режиссер: Тим Бёртон

В ролях: Джонни Депп, Миа Васиковска, Хелена Бонем Картер, Энн Хэтэуэй, Криспин Гловер, Мэтт Лукас, Майкл Шин, Стивен Фрай, Алан Рикман, Барбара Уиндсор

О фильме:
Жизнь 19-летней Алисы Кингсли принимает неожиданный оборот. На викторианской вечеринке, устроенной в её честь, Алисе делает предложение Хэмиш, богатый, но глупый сын лорда и леди Эскот. Не дав ответа, девушка убегает и идёт за кроликом, замеченным ею на лужайке. Кролик как кролик, вот только он одет в камзол и всё время смотрит на карманные часы.
Алиса гонится за Белым Кроликом через весь луг и видит, как он исчезает в кроличьей норе. Затем, неожиданно, Алиса падает туда сама, летит вниз по странному, сказочному туннелю и приземляется в круглом зале со множеством дверей. Выпив из бутылки с надписью «ВЫПЕЙ МЕНЯ», она уменьшается в размерах, а откусив от пирожного с надписью «СЪЕШЬ МЕНЯ» — вырастает. Наконец, миновав череду злоключений, Алиса попадает через одну из дверей в чудесный фантастический мир, который его обитатели называют Подземной страной.
Там её ждёт целый парад колоритных персонажей: хвастливая Соня, сумасшедший Шляпник, глумливый Чеширский Кот, накурившаяся кальяном гусеница по имени Абессалом, жутковатая Белая Королева и её злобная сестра, Королева Червей, вздорная и раздражительная правительница Подземной страны.



Выпущено: США
Продолжительность: 01:48:34
Перевод: Дублированный + Оригинал


Кодек: x264
Качество: BDRip 1080p
Видео: 1920x1080, 8954 Kbps, 23.976 fps
Аудио #1: AC-3, 6 ch, 640 kbps (Rus)
Аудио #2: AC-3, 6 ch, 640 kbps (Eng)
Субтитры: русские (полные, форсированные), английские

x264 [info]: frame I:1574 Avg QP:17.22 size:245283
x264 [info]: frame P:39278 Avg QP:19.64 size: 83656
x264 [info]: frame B:115348 Avg QP:21.36 size: 31359

Общее
Уникальный идентификатор : 186983092181440460750761281233866765728 (0x8CABA235BF9728FAA892A7D1DD44B5A0)
Полное имя : Алиса в стране чудес.2010.BDRip.1080p.Rus.Eng.mkv
Формат : Matroska
Версия формата : Version 2
Размер файла : 7,76 Гбайт
Продолжительность : 1 ч. 48 м.
Общий поток : 10,2 Мбит/сек
Название фильма : Алиса в стране чудес.2010
Дата кодирования : UTC 2014-09-23 17:13:57
Программа кодирования : mkvmerge v5.8.0 ('No Sleep / Pillow') built on Sep 2 2012 15:37:04
Библиотека кодирования : libebml v1.2.3 + libmatroska v1.3.0
Attachements : Cover.png

Видео
Идентификатор : 1
Формат : AVC
Формат/Информация : Advanced Video Codec
Профиль формата : High@L4.1
Параметр CABAC формата : Да
Параметр ReFrames формата : 4 кадра
Идентификатор кодека : V_MPEG4/ISO/AVC
Продолжительность : 1 ч. 48 м.
Битрейт : 8954 Кбит/сек
Ширина : 1920 пикселей
Высота : 1080 пикселей
Соотношение сторон : 16:9
Режим частоты кадров : Постоянный
Частота кадров : 23,976 кадра/сек
Цветовое пространство : YUV
Субдискретизация насыщенности : 4:2:0
Битовая глубина : 8 бит
Тип развёртки : Прогрессивная
Бит/(Пиксели*Кадры) : 0.180
Размер потока : 6,64 Гбайт (86%)
Заголовок : Rip by Boriy
Библиотека кодирования : x264 core 142 r2479 dd79a61
Настройки программы : cabac=1 / ref=4 / deblock=1:-3:-3 / analyse=0x3:0x113 / me=umh / subme=11 / psy=1 / psy_rd=1.00:0.00 / mixed_ref=1 / me_range=32 / chroma_me=1 / trellis=2 / 8x8dct=1 / cqm=0 / deadzone=21,11 / fast_pskip=0 / chroma_qp_offset=-2 / threads=12 / lookahead_threads=2 / sliced_threads=0 / nr=0 / decimate=0 / interlaced=0 / bluray_compat=0 / constrained_intra=0 / bframes=8 / b_pyramid=2 / b_adapt=2 / b_bias=0 / direct=3 / weightb=1 / open_gop=0 / weightp=2 / keyint=240 / keyint_min=23 / scenecut=40 / intra_refresh=0 / rc=2pass / mbtree=0 / bitrate=8954 / ratetol=1.0 / qcomp=0.60 / qpmin=0 / qpmax=69 / qpstep=4 / cplxblur=20.0 / qblur=0.5 / ip_ratio=1.40 / pb_ratio=1.30 / aq=1:0.80
Язык : English
Default : Да
Forced : Нет

Аудио #1
Идентификатор : 2
Формат : AC-3
Формат/Информация : Audio Coding 3
Расширение режима : CM (complete main)
Параметр Endianness формата : Big
Идентификатор кодека : A_AC3
Продолжительность : 1 ч. 48 м.
Вид битрейта : Постоянный
Битрейт : 640 Кбит/сек
Каналы : 6 каналов
Расположение каналов : Front: L C R, Side: L R, LFE
Частота : 48,0 КГц
Битовая глубина : 16 бит
Метод сжатия : С потерями
Размер потока : 497 Мбайт (6%)
Заголовок : Дубляж
Язык : Russian
Default : Да
Forced : Нет

Аудио #2
Идентификатор : 3
Формат : AC-3
Формат/Информация : Audio Coding 3
Расширение режима : CM (complete main)
Параметр Endianness формата : Big
Идентификатор кодека : A_AC3
Продолжительность : 1 ч. 48 м.
Вид битрейта : Постоянный
Битрейт : 640 Кбит/сек
Каналы : 6 каналов
Расположение каналов : Front: L C R, Side: L R, LFE
Частота : 48,0 КГц
Битовая глубина : 16 бит
Метод сжатия : С потерями
Размер потока : 497 Мбайт (6%)
Заголовок : Оригинал
Язык : English
Default : Нет
Forced : Нет

Текст #1
Идентификатор : 4
Формат : UTF-8
Идентификатор кодека : S_TEXT/UTF8
Идентификатор кодека/Информация : UTF-8 Plain Text
Заголовок : Forced BD
Язык : Russian
Default : Да
Forced : Да

Текст #2
Идентификатор : 5
Формат : UTF-8
Идентификатор кодека : S_TEXT/UTF8
Идентификатор кодека/Информация : UTF-8 Plain Text
Заголовок : Full BD
Язык : Russian
Default : Нет
Forced : Нет

Текст #3
Идентификатор : 6
Формат : UTF-8
Идентификатор кодека : S_TEXT/UTF8
Идентификатор кодека/Информация : UTF-8 Plain Text
Заголовок : Full BD
Язык : English
Default : Нет
Forced : Нет

Меню
00:00:00.000 : :1. Dreamers
00:04:24.889 : :2. Miss Kingsleigh Is Distracted
00:10:36.886 : :3. Down the Rabbit Hole
00:18:13.509 : :4. The Wrong Alice
00:24:44.316 : :5. The Red Queen
00:28:41.344 : :6. Cheshire, The Hare and the Hatter
00:36:51.125 : :7. "I Make The Path"
00:46:15.731 : :8. Um from Umbradge
00:52:44.786 : :9. Freeing the Vorpal Sword
01:04:05.049 : :10. Escape to Marmoreal
01:10:02.198 : :11. Mutiny
01:15:36.490 : :12. The White Queen's Champion
01:23:39.264 : :13. Frabjous Day
01:34:12.688 : :14. Returning Home
01:36:58.354 : :15. Alice's Decision
01:40:12.131 : :16. End Credits
загрузка...
Правила, инструкции, FAQ!!!
Торрент  Добавлен [24 сен 2014, 19:14] Скачать торрент
Скачать торрент
[ Размер 20.05 КБ / Просмотров 7 ]

Статус
Проверен 
 
Размер  7.76 ГБ
Приватный: Нет (DHT включён)
.torrent скачан  340
Как залить торрент? | Как скачать Torrent? | Как смотреть и слушать онлайн?  


     Отправить личное сообщение
   
Страница 1 из 1
Показать сообщения за:  Поле сортировки  
Начать новую тему Ответить на тему

   Похожие торренты   Автор   Ответы   Просмотры   Последнее сообщение 
В этой теме нет новых непрочитанных сообщений. Скачать торрент Проверен Алиса в стране чудес / Alice in Wonderland (2010) BDRip 720p

в форуме 720p | 1080p, Размер: 6.01 ГБ, Здоровье: 100%

Anonymous

0
73|4

53
476

24 сен 2014, 19:18

Anonymous Перейти к последнему сообщению

В этой теме нет новых непрочитанных сообщений. Скачать торрент Алиса в стране чудес / Alice in Wonderland (Тим Бёртон / Tim Burton) [2010, США, фэнтези, HDRip-AVC]

в форуме 720p | 1080p, Размер: 2.18 ГБ, Здоровье: 100%

Anonymous

0
56|19

35
0

19 фев 2014, 11:41

Anonymous Перейти к последнему сообщению

В этой теме нет новых непрочитанных сообщений. Скачать торрент Проверен Lewis Carroll / Льюис Кэрролл - Alice in Wonderland. Through the Looking-Glass / Алиса в Стране Чудес. Алиса в Зазеркалье [1991, DjVu, RUS]

в форуме Детская литература, Размер: 5.37 МБ, Здоровье: 100%

Гость

0
21|8

35
1

02 апр 2016, 14:20

Гость Перейти к последнему сообщению

В этой теме нет новых непрочитанных сообщений. Скачать торрент Проверен Кэрролл Л. - Алиса в Стране чудес (художник Р. Ингпен) [2015, PDF, RUS]

в форуме Детская литература, Размер: 103.28 МБ, Здоровье: 100%

Гость

0
35|11

31
2

02 апр 2016, 14:20

Гость Перейти к последнему сообщению

В этой теме нет новых непрочитанных сообщений. Скачать торрент Проверен Кэрролл Л. - Алиса в стране чудес [В.Абдулов, К.Румянова, В.Высоцкий и др, 64 кбит/с]

в форуме Детские литература, Размер: 35.9 МБ, Здоровье: 100%

Гость

0
34|11

102
0

23 фев 2015, 11:24

Гость Перейти к последнему сообщению



Сейчас этот форум просматривают: нет зарегистрированных пользователей и гости: 1


Вы не можете начинать темы
Вы не можете отвечать на сообщения
Вы не можете редактировать свои сообщения
Вы не можете удалять свои сообщения
Вы не можете добавлять вложения

Перейти:  

!ВНИМАНИЕ!
 Ресурс не предоставляет электронные версии произведений, а занимается лишь коллекционированием и каталогизацией ссылок, присылаемых и публикуемых на форуме нашими читателями. Если вы являетесь правообладателем какого-либо представленного материала и не желаете чтобы ссылка на него находилась в нашем каталоге, свяжитесь с нами и мы незамедлительно удалим её. Файлы для обмена на трекере предоставлены пользователями сайта, и администрация не несёт ответственности за их содержание. Просьба не заливать файлы, защищенные авторскими правами, а также файлы нелегального содержания!