На всех торрентах на трекере установлена скидка на скачивание в размере 100 процентов(а).
 Возможность скачивания торрента НЕ зависит от ограничений при низком ратио, низком аплоаде, требуемом ратио или требуемом аплоаде.


Начать новую тему Ответить на тему
Статистика раздачи
Размер: 4.37 ГБ | Добавлен: 21 сен 2014, 00:13 | Скачали: 370
Сидеров: 17  [0 байт/сек]    Личеров: 3  [0 байт/сек]
Пред. тема | След. тема 

Автор
Сообщение

СообщениеДобавлено: 21 сен 2014, 00:13 

Название: Шестой день
Оригинальное название: The 6th Day
Год выхода: 2000
Жанр: фантастика, боевик, триллер
Режиссер: Роджер Споттисвуд
В ролях: Арнольд Шварценеггер, Майкл Рапапорт, Тони Голдвин, Майкл Рукер, Сара Уайнтер, Венди Крюсон, Родни Роулэнд, Терри Крюс, Кен Пог, Колин Каннингэм, Роберт Дюваль, Ванда Кэннон, Тейлор Энн Рейд, Дженнифер Гарейс, Дон МакМанус, Стив Вачич, Кристофер Лоуфорд, Марк Брэндон, Элли Харви, Дон С. Дэвис, Крис Каунд

О фильме:
В начале третьего тысячелетия самым суровым законом стал "закон Шестого дня". Он запрещал клонирование людей и создание искусственных копий человека. Но огромная подпольная империя вопреки запрету выращивает человечество нового будущего, сотни управляемых теней.
Налаженная машина преступления не давала сбоев, пока в ее совершенный механизм не вмешалась случайность: пилот вертолета Адам Гибсон неожиданно приоткрыл непроницаемую завесу заговора. Теперь он — последний рубеж обороны, отделяющий цивилизацию от общества зомби.



Выпущено: США
Продолжительность: 02:03:37
Перевод: Дублированный


Кодек: x264
Качество: BDRip 1080p
Видео: 1920x800, 4425 Kbps, 23.976 fps
Звук: 48 kHz, AC3, 6c, 640 kbps
Субтитры: русские (2 вида), английские

General
Unique ID : 243737187538965115697875544989064865222 (0xB75E13265E41592DBA21E8635039A5C6)
Complete name : Шестой день.2000.BDRip.1080p.Rus.mkv
Format : Matroska
Format version : Version 2
File size : 4.37 GiB
Duration : 2h 3mn
Overall bit rate : 5 059 Kbps
Movie name : Шестой день.2000
Encoded date : UTC 2012-07-18 06:12:25
Writing application : mkvmerge v5.7.0 ('The Whirlwind') built on Jul 10 2012 18:39:26
Writing library : libebml v1.2.3 + libmatroska v1.3.0

Video
ID : 1
Format : AVC
Format/Info : Advanced Video Codec
Format profile : High@L4.1
Format settings, CABAC : Yes
Format settings, ReFrames : 5 frames
Codec ID : V_MPEG4/ISO/AVC
Duration : 2h 3mn
Bit rate : 4 425 Kbps
Width : 1 920 pixels
Height : 800 pixels
Display aspect ratio : 2.40:1
Frame rate : 23.976 fps
Color space : YUV
Chroma subsampling : 4:2:0
Bit depth : 8 bits
Scan type : Progressive
Bits/(Pixel*Frame) : 0.120
Stream size : 3.73 GiB (85%)
Title : Rip и Boriy
Writing library : x264 core 125 r2200 999b753
Encoding settings : cabac=1 / ref=5 / deblock=1:0:0 / analyse=0x3:0x113 / me=umh / subme=10 / psy=1 / psy_rd=1.00:0.10 / mixed_ref=1 / me_range=32 / chroma_me=1 / trellis=2 / 8x8dct=1 / cqm=0 / deadzone=21,11 / fast_pskip=0 / chroma_qp_offset=-3 / threads=12 / lookahead_threads=2 / sliced_threads=0 / nr=0 / decimate=0 / interlaced=0 / bluray_compat=0 / constrained_intra=0 / bframes=5 / b_pyramid=2 / b_adapt=2 / b_bias=0 / direct=3 / weightb=1 / open_gop=0 / weightp=2 / keyint=240 / keyint_min=23 / scenecut=40 / intra_refresh=0 / rc_lookahead=60 / rc=2pass / mbtree=1 / bitrate=4425 / ratetol=1.0 / qcomp=0.60 / qpmin=0 / qpmax=69 / qpstep=4 / cplxblur=20.0 / qblur=0.5 / ip_ratio=1.40 / aq=1:1.00
Language : English
Default : Yes
Forced : No

Audio
ID : 2
Format : AC-3
Format/Info : Audio Coding 3
Mode extension : CM (complete main)
Format settings, Endianness : Big
Codec ID : A_AC3
Duration : 2h 3mn
Bit rate mode : Constant
Bit rate : 640 Kbps
Channel(s) : 6 channels
Channel positions : Front: L C R, Side: L R, LFE
Sampling rate : 48.0 KHz
Bit depth : 16 bits
Compression mode : Lossy
Stream size : 566 MiB (13%)
Title : Дубляж
Language : Russian
Default : Yes
Forced : No

Text #1
ID : 3
Format : UTF-8
Codec ID : S_TEXT/UTF8
Codec ID/Info : UTF-8 Plain Text
Title : Full
Language : Russian
Default : No
Forced : No

Text #2
ID : 4
Format : UTF-8
Codec ID : S_TEXT/UTF8
Codec ID/Info : UTF-8 Plain Text
Title : Full 2
Language : Russian
Default : No
Forced : No

Text #3
ID : 5
Format : UTF-8
Codec ID : S_TEXT/UTF8
Codec ID/Info : UTF-8 Plain Text
Title : Full
Language : English
Default : No
Forced : No

Menu
00:00:00.000 : :Chapter 1
00:08:25.755 : :Chapter 2
00:15:00.107 : :Chapter 3
00:18:35.656 : :Chapter 4
00:23:12.724 : :Chapter 5
00:31:23.214 : :Chapter 6
00:38:44.405 : :Chapter 7
00:45:13.085 : :Chapter 8
00:54:19.839 : :Chapter 9
00:58:22.874 : :Chapter 10
01:10:09.287 : :Chapter 11
01:15:44.872 : :Chapter 12
01:24:10.754 : :Chapter 13
01:33:41.490 : :Chapter 14
01:41:33.378 : :Chapter 15
01:49:20.679 : :Chapter 16
загрузка...
Правила, инструкции, FAQ!!!
Торрент  Добавлен [21 сен 2014, 00:13] Скачать торрент
Скачать торрент
[ Размер 22.37 КБ / Просмотров 11 ]

Статус
Проверен 
 
Размер  4.37 ГБ
Приватный: Нет (DHT включён)
.torrent скачан  370
Как залить торрент? | Как скачать Torrent? | Как смотреть и слушать онлайн?  


     Отправить личное сообщение
   
Страница 1 из 1
Показать сообщения за:  Поле сортировки  
Начать новую тему Ответить на тему

   Похожие торренты   Автор   Ответы   Просмотры   Последнее сообщение 
В этой теме нет новых непрочитанных сообщений. Скачать торрент Проверен Шестой день / The 6th Day (2000) BDRip | D, P | Лицензия

в форуме Фантастика, Фэнтези, Размер: 2.53 ГБ, Здоровье: 100%

Anonymous

0
55|5

58
281

21 сен 2014, 00:10

Anonymous Перейти к последнему сообщению

В этой теме нет новых непрочитанных сообщений. Скачать торрент Проверен Б. М. Свердлов | Навстречу шестой цивилизации. Достижение бессмертия души и тела (2000) [PDF]

в форуме Нетрадиционная медицина, Размер: 20.48 МБ, Здоровье: 100%

Anonymous

0
28|18

15
6

23 ноя 2015, 21:44

Anonymous Перейти к последнему сообщению

В этой теме нет новых непрочитанных сообщений. Скачать торрент Дар / The Gift (2000) BDRip 1080p | P, A

в форуме 720p | 1080p, Размер: 13.02 ГБ, Здоровье: 0%

Anonymous

0
0|0

32
0

02 янв 2014, 11:29

Anonymous Перейти к последнему сообщению

В этой теме нет новых непрочитанных сообщений. Скачать торрент Проверен Ю-571 / U-571 (2000) BDRip 1080p | D, A | Open Matte

в форуме 720p | 1080p, Размер: 19.72 ГБ, Здоровье: 100%

Гость

0
23|0

51
140

20 дек 2014, 15:36

Гость Перейти к последнему сообщению

В этой теме нет новых непрочитанных сообщений. Скачать торрент Проверен Семьянин / The Family Man (2000) BDRip [1080p]

в форуме 720p | 1080p, Размер: 9.99 ГБ, Здоровье: 0%

Гость

0
0|0

36
1

31 дек 2014, 00:03

Гость Перейти к последнему сообщению



Сейчас этот форум просматривают: нет зарегистрированных пользователей и гости: 1


Вы не можете начинать темы
Вы не можете отвечать на сообщения
Вы не можете редактировать свои сообщения
Вы не можете удалять свои сообщения
Вы не можете добавлять вложения

Перейти:  

!ВНИМАНИЕ!
 Ресурс не предоставляет электронные версии произведений, а занимается лишь коллекционированием и каталогизацией ссылок, присылаемых и публикуемых на форуме нашими читателями. Если вы являетесь правообладателем какого-либо представленного материала и не желаете чтобы ссылка на него находилась в нашем каталоге, свяжитесь с нами и мы незамедлительно удалим её. Файлы для обмена на трекере предоставлены пользователями сайта, и администрация не несёт ответственности за их содержание. Просьба не заливать файлы, защищенные авторскими правами, а также файлы нелегального содержания!