На всех торрентах на трекере установлена скидка на скачивание в размере 100 процентов(а).
 Возможность скачивания торрента НЕ зависит от ограничений при низком ратио, низком аплоаде, требуемом ратио или требуемом аплоаде.


Начать новую тему Ответить на тему
Статистика раздачи
Размер: 7.75 ГБ | Добавлен: 20 сен 2014, 23:57 | Скачали: 992
Сидеров: 144  [0 байт/сек]    Личеров: 11  [0 байт/сек]
Пред. тема | След. тема 

Автор
Сообщение

СообщениеДобавлено: 20 сен 2014, 23:57 

Название: Тёмная долина
Оригинальное название: Das finstere Tal
Год выхода: 2014
Жанр: Вестерн
Режиссер: Андреас Прохазка
В ролях: Сэм Райли, Тобиас Моретти, Хельмут Хеуслер, Мартин Лойтгеб, Йоханнес Николусси, Клеменс Шик, Флориан Брюкнер, Ганс-Михаэль Реберг, Эрвин Штайнхауэр, Франц Ксавер Брюкнер

О фильме:
Тайными путями одинокий всадник пробирается в маленький городок высоко в Альпах. Никто не знает, откуда прибыл незнакомец и чего он хочет. Но в одном жители городка уверены — они не хотят, чтобы он оставался здесь.


Страна: Австрия, Германия / Allegro Film, X-Filme Creative Pool
Продолжительность: 01:54:44
Перевод: Профессиональный многоголосый


Качество: BDRip 1080p
Видео: MPEG-4 AVC, 8398 Кбит/с, 1920x816, 24.000 кадр/с
Аудио #1: Русский (AC3, 6 ch, 640 Кбит/с) / Профессиональный многоголосый
Аудио #2: Немецкий (AC3, 6 ch, 640 Кбит/с)
Субтитры: Немецкие

Семпл

x264 [info]: frame I:927 Avg QP:13.95 size:177067
x264 [info]: frame P:37117 Avg QP:16.80 size: 80917
x264 [info]: frame B:127173 Avg QP:18.62 size: 31866
x264 [info]: consecutive B-frames: 2.7% 4.0% 9.7% 10.8% 17.4% 44.5% 7.6% 0.9% 1.4% 0.9%
x264 [info]: mb I I16..4: 14.8% 68.0% 17.2%
x264 [info]: mb P I16..4: 2.4% 12.4% 1.4% P16..4: 29.4% 36.8% 11.5% 1.8% 0.1% skip: 4.4%
x264 [info]: mb B I16..4: 0.4% 1.0% 0.2% B16..8: 43.5% 20.1% 2.7% direct: 7.1% skip:25.1% L0:45.3% L1:44.5% BI:10.3%
x264 [info]: 8x8 transform intra:72.9% inter:47.8%
x264 [info]: direct mvs spatial:98.7% temporal:1.3%
x264 [info]: coded y,uvDC,uvAC intra: 84.6% 70.7% 46.4% inter: 38.6% 26.2% 7.7%
x264 [info]: i16 v,h,dc,p: 24% 10% 20% 46%
x264 [info]: i8 v,h,dc,ddl,ddr,vr,hd,vl,hu: 6% 6% 14% 11% 14% 12% 13% 11% 13%
x264 [info]: i4 v,h,dc,ddl,ddr,vr,hd,vl,hu: 8% 7% 29% 7% 11% 9% 10% 8% 12%
x264 [info]: i8c dc,h,v,p: 41% 27% 18% 14%
x264 [info]: Weighted P-Frames: Y:13.6% UV:8.6%
x264 [info]: ref P L0: 46.8% 7.8% 23.9% 10.5% 9.0% 1.7% 0.2%
x264 [info]: ref B L0: 73.2% 19.1% 6.1% 1.6%
x264 [info]: ref B L1: 91.5% 8.5%
x264 [info]: kb/s:8390.53

Format : Matroska
Format version : Version 4 / Version 2
File size : 7.75 GiB
Duration : 1h 54mn
Overall bit rate : 9 673 Kbps
Movie name : Encode by Odessit
Encoded date : UTC 2014-09-20 18:08:44
Writing application : mkvmerge v6.8.0 ('Theme for Great Cities') 64bit built on Mar 2 2014 21:34:26
Writing library : libebml v1.3.0 + libmatroska v1.4.1

Video
ID : 1
Format : AVC
Format/Info : Advanced Video Codec
Format profile : High@L4.1
Format settings, CABAC : Yes
Format settings, ReFrames : 5 frames
Codec ID : V_MPEG4/ISO/AVC
Duration : 1h 54mn
Bit rate : 8 398 Kbps
Width : 1 920 pixels
Height : 816 pixels
Display aspect ratio : 2.35:1
Frame rate : 24.000 fps
Color space : YUV
Chroma subsampling : 4:2:0
Bit depth : 8 bits
Scan type : Progressive
Bits/(Pixel*Frame) : 0.223
Stream size : 6.57 GiB (85%)
Writing library : x264 core 142 r2409+42 04be48a tMod [8-bit@all X86_64]
Encoding settings : cabac=1 / ref=5 / deblock=1:-3:-3 / analyse=0x3:0x133 / me=umh / subme=11 / psy=1 / fade_compensate=0.00 / psy_rd=1.05:0.00 / mixed_ref=1 / me_range=32 / chroma_me=1 / trellis=2 / 8x8dct=1 / cqm=0 / deadzone=21,11 / fast_pskip=0 / chroma_qp_offset=-2 / threads=6 / lookahead_threads=1 / sliced_threads=0 / nr=0 / decimate=0 / interlaced=0 / bluray_compat=0 / constrained_intra=0 / fgo=0 / bframes=9 / b_pyramid=2 / b_adapt=2 / b_bias=0 / direct=3 / weightb=1 / open_gop=0 / weightp=2 / keyint=250 / keyint_min=24 / scenecut=40 / intra_refresh=0 / rc=2pass / mbtree=0 / bitrate=8398 / ratetol=1.0 / qcomp=0.70 / qpmin=0:0:0 / qpmax=69:69:69 / qpstep=4 / cplxblur=20.0 / qblur=0.5 / ip_ratio=1.40 / pb_ratio=1.30 / aq=3:0.80 / aq-sensitivity=10.00 / aq-factor=1.00:1.00:1.00 / aq2=0 / aq3=0
Language : English
Color primaries : BT.709
Transfer characteristics : BT.709
Matrix coefficients : BT.709

Audio #1
ID : 2
Format : AC-3
Format/Info : Audio Coding 3
Mode extension : CM (complete main)
Codec ID : A_AC3
Duration : 1h 54mn
Bit rate mode : Constant
Bit rate : 640 Kbps
Channel(s) : 6 channels
Channel positions : Front: L C R, Side: L R, LFE
Sampling rate : 48.0 KHz
Bit depth : 16 bits
Compression mode : Lossy
Stream size : 525 MiB (7%)
Title : Профессиональный многоголосый (Лицензия)
Language : Russian

Audio #2
ID : 3
Format : AC-3
Format/Info : Audio Coding 3
Mode extension : CM (complete main)
Codec ID : A_AC3
Duration : 1h 54mn
Bit rate mode : Constant
Bit rate : 640 Kbps
Channel(s) : 6 channels
Channel positions : Front: L C R, Side: L R, LFE
Sampling rate : 48.0 KHz
Bit depth : 16 bits
Compression mode : Lossy
Stream size : 525 MiB (7%)
Language : German

Text
ID : 4
Format : UTF-8
Codec ID : S_TEXT/UTF8
Codec ID/Info : UTF-8 Plain Text
Language : German

Menu
00:00:00.000 : :Chapter 01
00:09:40.250 : :Chapter 02
00:20:09.708 : :Chapter 03
00:28:27.000 : :Chapter 04
00:39:48.625 : :Chapter 05
00:49:15.000 : :Chapter 06
00:56:12.833 : :Chapter 07
01:03:55.541 : :Chapter 08
01:08:34.082 : :Chapter 09
01:21:32.957 : :Chapter 10
01:33:25.707 : :Chapter 11
01:49:57.333 : :Chapter 12



Релиз от: |
загрузка...
Правила, инструкции, FAQ!!!
Торрент  Добавлен [20 сен 2014, 23:57] Скачать торрент
Скачать торрент
[ Размер 39.36 КБ / Просмотров 9 ]

Статус
Проверен 
 
Размер  7.75 ГБ
Приватный: Нет (DHT включён)
.torrent скачан  992
Как залить торрент? | Как скачать Torrent? | Как смотреть и слушать онлайн?  


     Отправить личное сообщение
   
Страница 1 из 1
Показать сообщения за:  Поле сортировки  
Начать новую тему Ответить на тему

   Похожие торренты   Автор   Ответы   Просмотры   Последнее сообщение 
В этой теме нет новых непрочитанных сообщений. Скачать торрент Проверен Тёмная долина / Das finstere Tal (2014) BDRip 720p | Лицензия

в форуме 720p | 1080p, Размер: 5.35 ГБ, Здоровье: 100%

Anonymous

0
644|34

61
4734

20 сен 2014, 23:59

Anonymous Перейти к последнему сообщению

В этой теме нет новых непрочитанных сообщений. Скачать торрент Проверен Тёмная долина / Das finstere Tal / The Dark Valley (2014) HDRip | Лицензия

в форуме Вестерн, Размер: 1.37 ГБ, Здоровье: 100%

Anonymous

0
2102|545

213
6912

14 сен 2014, 21:13

Anonymous Перейти к последнему сообщению

В этой теме нет новых непрочитанных сообщений. Скачать торрент Проверен Василиса (2014) BDRip 1080p | Лицензия

в форуме 720p | 1080p, Размер: 10.02 ГБ, Здоровье: 17%

Гость

0
12|70

55
13

31 янв 2015, 13:06

Гость Перейти к последнему сообщению

В этой теме нет новых непрочитанных сообщений. Скачать торрент Проверен Игрок / The Gambler (2014) BDRip 1080p | Лицензия

в форуме 720p | 1080p, Размер: 8.29 ГБ, Здоровье: 90%

Гость

0
1182|1307

150
1842

31 мар 2015, 12:27

Гость Перейти к последнему сообщению

В этой теме нет новых непрочитанных сообщений. Скачать торрент Проверен Окулус / Oculus (2014) BDRip 1080p | Лицензия

в форуме 720p | 1080p, Размер: 4.66 ГБ, Здоровье: 0%

Anonymous

0
0|0

47
0

21 фев 2015, 20:01

Anonymous Перейти к последнему сообщению



Сейчас этот форум просматривают: нет зарегистрированных пользователей и гости: 1


Вы не можете начинать темы
Вы не можете отвечать на сообщения
Вы не можете редактировать свои сообщения
Вы не можете удалять свои сообщения
Вы не можете добавлять вложения

Перейти:  

!ВНИМАНИЕ!
 Ресурс не предоставляет электронные версии произведений, а занимается лишь коллекционированием и каталогизацией ссылок, присылаемых и публикуемых на форуме нашими читателями. Если вы являетесь правообладателем какого-либо представленного материала и не желаете чтобы ссылка на него находилась в нашем каталоге, свяжитесь с нами и мы незамедлительно удалим её. Файлы для обмена на трекере предоставлены пользователями сайта, и администрация не несёт ответственности за их содержание. Просьба не заливать файлы, защищенные авторскими правами, а также файлы нелегального содержания!