На всех торрентах на трекере установлена скидка на скачивание в размере 100 процентов(а).
 Возможность скачивания торрента НЕ зависит от ограничений при низком ратио, низком аплоаде, требуемом ратио или требуемом аплоаде.


Начать новую тему Ответить на тему
Статистика раздачи
Размер: 1.48 ГБ | Добавлен: 13 мар 2013, 12:07 | Скачали: 0
Сидеров: 0  [0 байт/сек]    Личеров: 0  [0 байт/сек]
Пред. тема | След. тема 

Автор
Сообщение

СообщениеДобавлено: 13 мар 2013, 12:07 

Название: Марафон
Оригинальное название: De Marathon
Год выхода: 2012
Жанр: Комедия, Драма
Режиссер: Дидрик Копал / Diederick Koopal

В фильме снимались: Стефан Де Валь, Мартин Ван Фарденберг, Марсель Хансема

Вкратце:
Автомастерская, в которой работают четверо любящих пивко, карты и сигареты друзей, под угрозой банкротства. Их осеняет "блесящая" идея найти спонсора и пробежать Роттердамский марафон. Вот только лет им уже всем под пятьдесят. Они полны решимости финишировать и уговаривают быть их тренером хромого эмминранта-египтянина. Для главного героя на кону стоит не только гараж, но и собственная жизнь.



Страна: Нидерланды
Продолжительность: 01:51:51
Перевод: Авторский (одноголосый закадровый)


Формат видео: MKV
Качество: BDRip 720p
Видео: H.264, 1280x528, 24:10, 23.976 fps, 1700 Kbps
Звук: Mpeg Audio, 44.1 KHz, 192 Kbps, 2 channels



E:razdachiDe MarathonDe Marathon (2012) 720p BRRip Bocharov perevod.mkv
General
Unique ID : 236871955092553079890384223921507925143 (0xB233E10EA70B51E0983A841981B7FC97)
Complete name : E:razdachiDe MarathonDe Marathon (2012) 720p BRRip Bocharov perevod.mkv
Format : Matroska
Format version : Version 2
File size : 1.48 GiB
Duration : 1h 51mn
Overall bit rate : 1 888 Kbps
Encoded date : UTC 2013-03-12 15:27:50
Writing application : mkvmerge v5.6.0 ('Kenya Kane') built on May 27 2012 16:44:04
Writing library : libebml v1.2.3 + libmatroska v1.3.0
Video #1
ID : 1
Format : AVC
Format/Info : Advanced Video Codec
Format profile : Main@L4.0
Format settings, CABAC : Yes
Format settings, ReFrames : 4 frames
Muxing mode : Header stripping
Codec ID : V_MPEG4/ISO/AVC
Duration : 1h 51mn
Bit rate : 1 700 Kbps
Width : 1 280 pixels
Height : 528 pixels
Display aspect ratio : 2.40:1
Frame rate mode : Variable
Frame rate : 23.976 fps
Color space : YUV
Chroma subsampling : 4:2:0
Bit depth : 8 bits
Scan type : Progressive
Bits/(Pixel*Frame) : 0.105
Stream size : 1.30 GiB (88%)
Writing library : x264 core 129
Encoding settings : cabac=1 / ref=1 / deblock=1:0:0 / analyse=0x1:0x111 / me=hex / subme=2 / psy=1 / psy_rd=1.00:0.00 / mixed_ref=0 / me_range=16 / chroma_me=1 / trellis=0 / 8x8dct=0 / cqm=0 / deadzone=21,11 / fast_pskip=1 / chroma_qp_offset=0 / threads=6 / lookahead_threads=1 / sliced_threads=0 / nr=0 / decimate=1 / interlaced=0 / bluray_compat=0 / constrained_intra=0 / bframes=3 / b_pyramid=2 / b_adapt=1 / b_bias=0 / direct=1 / weightb=1 / open_gop=0 / weightp=1 / keyint=240 / keyint_min=24 / scenecut=40 / intra_refresh=0 / rc_lookahead=10 / rc=abr / mbtree=1 / bitrate=1700 / ratetol=1.0 / qcomp=0.60 / qpmin=4 / qpmax=69 / qpstep=4 / vbv_maxrate=20000 / vbv_bufsize=25000 / nal_hrd=none / ip_ratio=1.40 / aq=1:1.00
Language : English
Default : Yes
Forced : No
Color primaries : BT.709-5, BT.1361, IEC 61966-2-4, SMPTE RP177
Transfer characteristics : BT.709-5, BT.1361
Matrix coefficients : BT.709-5, BT.1361, IEC 61966-2-4 709, SMPTE RP177
Audio #2
ID : 2
Format : MPEG Audio
Format version : Version 1
Format profile : Layer 3
Muxing mode : Header stripping
Codec ID : A_MPEG/L3
Codec ID/Hint : MP3
Duration : 1h 51mn
Bit rate mode : Constant
Bit rate : 192 Kbps
Channel(s) : 2 channels
Sampling rate : 44.1 KHz
Compression mode : Lossy
Stream size : 154 MiB (10%)
Writing library : LAMELAME_MAJOR_VERSI
Default : Yes
Forced : No


загрузка...
Правила, инструкции, FAQ!!!
Торрент  Добавлен [13 мар 2013, 12:07] Скачать торрент
Скачать торрент
[ Размер 15.22 КБ / Просмотров 6 ]

Статус  
 
Размер  1.48 ГБ
Приватный: Нет (DHT включён)
.torrent скачан  0
Как залить торрент? | Как скачать Torrent? | Как смотреть и слушать онлайн?  


     Отправить личное сообщение
   
Страница 1 из 1
Показать сообщения за:  Поле сортировки  
Начать новую тему Ответить на тему

   Похожие торренты   Автор   Ответы   Просмотры   Последнее сообщение 
В этой теме нет новых непрочитанных сообщений. Скачать торрент Проверен Рассказы (Михаил Сегал) [2012, Россия, драма, комедия, BDRip 720p] Original Rus + Sub Rus, Eng, Fre, Ger

в форуме Наше кино (HD Video), Размер: 5.21 ГБ, Здоровье: 100%

Anonymous

0
34|11

206
0

12 апр 2015, 15:07

Anonymous Перейти к последнему сообщению

В этой теме нет новых непрочитанных сообщений. Скачать торрент Проверен Higdon H. / Хигдон Х. - Marathon: the ultimate training guide / Марафон: полное руководство по подготовке [1999, DjVu, ENG]

в форуме Физкультура, фитнес, бодибилдинг, Размер: 1.74 МБ, Здоровье: 100%

Anonymous

0
20|7

4
0

05 окт 2016, 00:29

Anonymous Перейти к последнему сообщению

В этой теме нет новых непрочитанных сообщений. Скачать торрент Проверен Курьер (Карен Шахназаров) [1986, СССР, драма, мелодрама, комедия, BDRip 720p]

в форуме Наше кино (HD Video), Размер: 4.37 ГБ, Здоровье: 100%

Anonymous

0
65|16

43
1

12 апр 2015, 11:07

Anonymous Перейти к последнему сообщению

В этой теме нет новых непрочитанных сообщений. Скачать торрент Проверен Кин-дза-дза! (Георгий Данелия) [1986, СССР, Фантастика, драма, комедия, приключения, BDRip 720p] + Sub Rus + Original Rus

в форуме Наше кино (HD Video), Размер: 7.21 ГБ, Здоровье: 100%

Anonymous

0
35|11

156
1

12 апр 2015, 15:08

Anonymous Перейти к последнему сообщению

В этой теме нет новых непрочитанных сообщений. Скачать торрент Проверен Мастер и Маргарита (Юрий Кара) [1994, Россия, драма, комедия, детектив, BDRip 720p]

в форуме Наше кино (HD Video), Размер: 7.08 ГБ, Здоровье: 100%

Anonymous

0
46|15

70
0

12 апр 2015, 11:08

Anonymous Перейти к последнему сообщению



Сейчас этот форум просматривают: нет зарегистрированных пользователей и гости: 1


Вы не можете начинать темы
Вы не можете отвечать на сообщения
Вы не можете редактировать свои сообщения
Вы не можете удалять свои сообщения
Вы не можете добавлять вложения

Перейти:  

!ВНИМАНИЕ!
 Ресурс не предоставляет электронные версии произведений, а занимается лишь коллекционированием и каталогизацией ссылок, присылаемых и публикуемых на форуме нашими читателями. Если вы являетесь правообладателем какого-либо представленного материала и не желаете чтобы ссылка на него находилась в нашем каталоге, свяжитесь с нами и мы незамедлительно удалим её. Файлы для обмена на трекере предоставлены пользователями сайта, и администрация не несёт ответственности за их содержание. Просьба не заливать файлы, защищенные авторскими правами, а также файлы нелегального содержания!