На всех торрентах на трекере установлена скидка на скачивание в размере 100 процентов(а).
 Возможность скачивания торрента НЕ зависит от ограничений при низком ратио, низком аплоаде, требуемом ратио или требуемом аплоаде.


Начать новую тему Ответить на тему
Статистика раздачи
Размер: 4.69 ГБ | Добавлен: 12 мар 2013, 20:06 | Скачали: 0
Сидеров: 0  [0 байт/сек]    Личеров: 0  [0 байт/сек]
Пред. тема | След. тема 

Автор
Сообщение

СообщениеДобавлено: 12 мар 2013, 20:06 

Мой отец герой / My Father the Hero


Название: Мой отец герой
Оригинальное название: My Father the Hero
Год выхода: 1994
Жанр: Комедия, мелодрама
Режиссер: Стив Майнер

В фильме снимались: Жерар Депардье, Кэтрин Хайгл, Далтон Джеймс, Лорен Хаттон, Фэйт Принс, Стивен Тоболовски, Энн Хирн, Робин Питерсон, Фрэнк Рензулли, Мэнни Джекобс, Джеффри Чеа, Стефен Берроуз, Майкл Робинсон, Роберт Майнер, Бетти Майнер, Роберто Эскобар, Юсеф Булос, Стэйси Уильямсон, Малу Корригэн, Робин Болтер

Вкратце:
Может ли отец стать любовником? Чтобы решиться на это нужно проявить настоящий героизм. Долгожданная встреча с дочерью, которую Андре не видел много лет после развода с женой, оказалась более чем неожиданной. За годы разлуки он настолько отвык от роли отца, что поведение повзрослевшей дочери постоянно приводило его в замешательство. Чего только стоило предложение разыграть перед окружающими влюбленную парочку!



Страна: США, Франция
Студия: Touchstone Pictures, Film Par Film, Edward S. Feldman Company
Продолжительность: 01:29:52
Перевод: Профессиональный (многоголосый закадровый) (ОРТ) + авторский (одноголосый) (В. Дохалов) + оригинал

Формат: mkv
Кодек: H.264
Качество: BDRip 720p
Видео: MPEG-4 AVC, 5000 Кбит/с, 1280x692, 23.976 кадр/с
Звук:
Русский (АС3, 2 ch, 192 Кбит/с) / Профессиональный (многоголосый закадровый) (ОРТ)
Русский (АС3, 2 ch, 192 Кбит/с) / Авторский (одноголосый) (В. Дохалов)
Английский (DTS, 2 ch, 1510 Кбит/с)
Субтитры: Английские



General
Unique ID : 174970636922242213718218524874722199569 (0x83A21E707925B71B830A1371B3FF4811)
Complete name : C:1Films CMoj.otec.geroj.1994.x264.BDRip.720p.MediaClub.mkv
Format : Matroska
Format version : Version 2
File size : 4.69 GiB
Duration : 1h 29mn
Overall bit rate mode : Variable
Overall bit rate : 7 473 Kbps
Movie name : = MediaClub = rip by Lefevr
Encoded date : UTC 2013-03-12 14:02:16
Writing application : mkvmerge v5.4.0 ('Piper') built on Mar 10 2012 13:34:39
Writing library : libebml v1.2.3 + libmatroska v1.3.0

Video
ID : 1
Format : AVC
Format/Info : Advanced Video Codec
Format profile : High@L4.1
Format settings, CABAC : Yes
Format settings, ReFrames : 9 frames
Codec ID : V_MPEG4/ISO/AVC
Duration : 1h 29mn
Bit rate : 5 383 Kbps
Nominal bit rate : 5 000 Kbps
Width : 1 280 pixels
Height : 692 pixels
Display aspect ratio : 1.850
Frame rate : 23.976 fps
Color space : YUV
Chroma subsampling : 4:2:0
Bit depth : 8 bits
Scan type : Progressive
Bits/(Pixel*Frame) : 0.253
Stream size : 3.38 GiB (72%)
Title : Moj.otec.geroj.1994
Writing library : x264 core 125 r2208 d9d2288
Encoding settings : cabac=1 / ref=9 / deblock=1:-3:-3 / analyse=0x3:0x133 / me=umh / subme=11 / psy=1 / psy_rd=1.00:0.05 / mixed_ref=1 / me_range=32 / chroma_me=1 / trellis=2 / 8x8dct=1 / cqm=0 / deadzone=21,11 / fast_pskip=0 / chroma_qp_offset=-3 / threads=6 / lookahead_threads=1 / sliced_threads=0 / nr=0 / decimate=0 / interlaced=0 / bluray_compat=0 / constrained_intra=0 / bframes=8 / b_pyramid=2 / b_adapt=2 / b_bias=0 / direct=3 / weightb=1 / open_gop=0 / weightp=2 / keyint=240 / keyint_min=23 / scenecut=40 / intra_refresh=0 / rc=2pass / mbtree=0 / bitrate=5000 / ratetol=1.0 / qcomp=0.60 / qpmin=0 / qpmax=69 / qpstep=4 / cplxblur=20.0 / qblur=0.5 / ip_ratio=1.40 / pb_ratio=1.30 / aq=1:0.80
Language : English
Default : Yes
Forced : No

Audio #1
ID : 2
Format : AC-3
Format/Info : Audio Coding 3
Mode extension : CM (complete main)
Codec ID : A_AC3
Duration : 1h 29mn
Bit rate mode : Constant
Bit rate : 192 Kbps
Channel(s) : 2 channels
Channel positions : Front: L R
Sampling rate : 48.0 KHz
Bit depth : 16 bits
Compression mode : Lossy
Stream size : 123 MiB (3%)
Title : TRACK_01_MVO_RUS
Language : Russian
Default : Yes
Forced : No

Audio #2
ID : 3
Format : AC-3
Format/Info : Audio Coding 3
Mode extension : CM (complete main)
Codec ID : A_AC3
Duration : 1h 29mn
Bit rate mode : Constant
Bit rate : 192 Kbps
Channel(s) : 2 channels
Channel positions : Front: L R
Sampling rate : 48.0 KHz
Bit depth : 16 bits
Compression mode : Lossy
Stream size : 123 MiB (3%)
Title : TRACK_02_AVO_Dohalov_RUS
Language : Russian
Default : No
Forced : No

Audio #3
ID : 4
Format : DTS
Format/Info : Digital Theater Systems
Format profile : MA / Core
Codec ID : A_DTS
Duration : 1h 29mn
Bit rate mode : Variable
Bit rate : 1 558 Kbps / 1 510 Kbps
Channel(s) : 2 channels
Channel positions : Front: L R
Sampling rate : 48.0 KHz
Bit depth : 24 bits
Compression mode : Lossless / Lossy
Title : TRACK_03_ORIGINAL_ENG
Language : English
Default : No
Forced : No

Text
ID : 5
Format : UTF-8
Codec ID : S_TEXT/UTF8
Codec ID/Info : UTF-8 Plain Text
Title : TEXT_01_SUB_ENG
Language : English
Default : No
Forced : No

загрузка...
Правила, инструкции, FAQ!!!
Торрент  Добавлен [12 мар 2013, 20:06] Скачать торрент
Скачать торрент
[ Размер 23.88 КБ / Просмотров 11 ]

Статус  
 
Размер  4.69 ГБ
Приватный: Нет (DHT включён)
.torrent скачан  0
Как залить торрент? | Как скачать Torrent? | Как смотреть и слушать онлайн?  


     Отправить личное сообщение
   
Страница 1 из 1
Показать сообщения за:  Поле сортировки  
Начать новую тему Ответить на тему

   Похожие торренты   Автор   Ответы   Просмотры   Последнее сообщение 
В этой теме нет новых непрочитанных сообщений. Скачать торрент Проверен Отец невесты / Father of the Bride (Чарльз Шайер / Charles Shyer) 1991 г., комедия, семейный, BDRip, 480p] MVO, AVO, Original + sub(rus, eng)

в форуме Фильмы для iPod, iPhone, iPad, Размер: 1.62 ГБ, Здоровье: 100%

Гость

0
11|4

79
0

18 май 2015, 10:48

Гость Перейти к последнему сообщению

В этой теме нет новых непрочитанных сообщений. Скачать торрент Проверен Десятидюймовый герой / Ten Inch Hero (2007) WEB-DL 720p | P

в форуме 720p | 1080p, Размер: 4.15 ГБ, Здоровье: 100%

Гость

0
37|26

55
40

22 май 2015, 00:35

Гость Перейти к последнему сообщению

В этой теме нет новых непрочитанных сообщений. Скачать торрент Герой / Ying Xiong (Hero) (2002) BDRip

в форуме Боевики, Размер: 1.46 ГБ, Здоровье: 0%

Anonymous

0
0|0

36
0

13 янв 2014, 13:10

Anonymous Перейти к последнему сообщению

В этой теме нет новых непрочитанных сообщений. Скачать торрент Проверен Джунгли (Александр Войтинский) [2012, Россия, мелодрама, комедия, приключения, BDRip 720p]

в форуме Наше кино (HD Video), Размер: 4.96 ГБ, Здоровье: 100%

Anonymous

0
23|7

39
0

12 апр 2015, 15:05

Anonymous Перейти к последнему сообщению

В этой теме нет новых непрочитанных сообщений. Скачать торрент Проверен Формула любви (Марк Захаров) [1984, СССР, мелодрама, комедия, BDRip 720p]

в форуме Наше кино (HD Video), Размер: 4.51 ГБ, Здоровье: 100%

Anonymous

0
45|12

150
3

12 апр 2015, 15:08

Anonymous Перейти к последнему сообщению



Сейчас этот форум просматривают: нет зарегистрированных пользователей и гости: 2


Вы не можете начинать темы
Вы не можете отвечать на сообщения
Вы не можете редактировать свои сообщения
Вы не можете удалять свои сообщения
Вы не можете добавлять вложения

Перейти:  

!ВНИМАНИЕ!
 Ресурс не предоставляет электронные версии произведений, а занимается лишь коллекционированием и каталогизацией ссылок, присылаемых и публикуемых на форуме нашими читателями. Если вы являетесь правообладателем какого-либо представленного материала и не желаете чтобы ссылка на него находилась в нашем каталоге, свяжитесь с нами и мы незамедлительно удалим её. Файлы для обмена на трекере предоставлены пользователями сайта, и администрация не несёт ответственности за их содержание. Просьба не заливать файлы, защищенные авторскими правами, а также файлы нелегального содержания!