На всех торрентах на трекере установлена скидка на скачивание в размере 100 процентов(а).
 Возможность скачивания торрента НЕ зависит от ограничений при низком ратио, низком аплоаде, требуемом ратио или требуемом аплоаде.


Начать новую тему Ответить на тему
Статистика раздачи
Размер: 7.95 ГБ | Добавлен: 12 мар 2013, 14:04 | Скачали: 12
Сидеров: 9  [0 байт/сек]    Личеров: 0  [0 байт/сек]
Пред. тема | След. тема 

Автор
Сообщение

СообщениеДобавлено: 12 мар 2013, 14:04 

Добро пожаловать в рай! / Into the Blue


Название: Добро пожаловать в рай!
Оригинальное название: Into the Blue
Год выхода: 2005
Жанр: Боевик, триллер, криминал, приключения
Режиссер: Джон Стокуэлл

В фильме снимались: Пол Уокер, Джессика Альба, Скотт Каан, Эшли Скотт, Джош Бролин, Джеймс Фрейн, Тайсон Бекфорд, Дуэйн Эдвэй, Джэвон Фрейзер, Крис Талоа, Клиффорд МакИнтош, Адам Коллинз, Гилл Монти, Дэн Баллард, Саманта Ламб, Артур Томпсон мл., Стефен Белло

Вкратце:
Из пункта «А» в пункт «Б» летел небольшой частный самолёт и во время грозы потерпел крушение, где-то в акватории Багамских островов… Как раз в тех местах, где молодой парень Джаред, инструктор по дайвингу, мечтает в свободное от службы время о будущей лучшей жизни вместе со своей подружкой Самантой, которая работает в местном аквапарке. В гости к ним приезжают Брайс, давний приятель Джареда, и тоже с подружкой - Амандой. Весело проводя время на земле и на море, они в ходе очередного заплыва на глубину натыкаются на затонувший самолёт, полный аккуратно запечатанных мешочков, как выяснится, с кокаином… С этой минуты начинаются для четверых друзей настоящие приключения, с погонями и предательством, с поединком, где выигравший получает жизнь...



Выпущено: США / Columbia Pictures Corporation, Mandalay Pictures, Metro-Goldwyn-Mayer (MGM)
Продолжительность: 01:50:12
Перевод: Дублированный, Профессиональный двухголосый, Авторский

Кодек: MPEG-4 AVC
Качество: BDRip 1080p
Видео: 1916x808, 23.976 fps, 8149 kbps
Звук:
Russian: AC3, 448 Kbps (6 ch) Дублированный (R5)
Russian: AC3, 384 Kbps (6 ch) Профессиональный двухголосый
Russian: AC3, 448 Kbps (6 ch) Авторский (Гаврилов)
Russian: AC3, 448 Kbps (6 ch) Авторский (Немахов)
English: AC3, 448 kb/s (6 ch) Original
Субтитры: Russian, Ukrainian, English

Общее
Уникальный идентификатор : 210503139944919157677794454643903060107 (0x9E5D6E187605EFEAB8A347588294588B)
Полное имя : Into.the.Blue.2005.х264.BDRip.1080p.mkv
Формат : Matroska
Версия формата : Version 2
Размер файла : 7,95 Гбайт
Продолжительность : 1 ч. 50 м.
Общий поток : 10,3 Мбит/сек
Название фильма : ☭WIDDER☭
Дата кодирования : UTC 2013-03-11 14:45:55
Программа кодирования : mkvmerge v4.5.0 ('Speed of Light') сборка от Feb 1 2011 02:10:32
Библиотека кодирования : libebml v1.2.0 + libmatroska v1.1.0

Видео
Идентификатор : 1
Формат : AVC
Формат/Информация : Advanced Video Codec
Профиль формата : High@L4.1
Параметр CABAC формата : Да
Параметр ReFrames формата : 5 кадров
Идентификатор кодека : V_MPEG4/ISO/AVC
Продолжительность : 1 ч. 50 м.
Битрейт : 8149 Кбит/сек
Ширина : 1916 пикселей
Высота : 808 пикселей
Соотношение сторон : 2,40:1
Режим частоты кадров : Постоянный
Частота кадров : 23,976 кадра/сек
Цветовое пространство : YUV
Субдискретизация насыщенности : 4:2:0
Битовая глубина : 8 бит
Тип развёртки : Прогрессивная
Бит/(Пиксели*Кадры) : 0.220
Размер потока : 6,12 Гбайт (77%)
Заголовок : Добро пожаловать в рай! / Into the Blue (2005)
Библиотека кодирования : x264 core 130 r2273 b3065e6
Настройки программы : cabac=1 / ref=5 / deblock=1:-3:-3 / analyse=0x3:0x133 / me=umh / subme=11 / psy=1 / psy_rd=1.00:0.00 / mixed_ref=1 / me_range=48 / chroma_me=1 / trellis=2 / 8x8dct=1 / cqm=0 / deadzone=21,11 / fast_pskip=0 / chroma_qp_offset=-2 / threads=12 / lookahead_threads=1 / sliced_threads=0 / nr=0 / decimate=1 / interlaced=0 / bluray_compat=0 / constrained_intra=0 / bframes=5 / b_pyramid=2 / b_adapt=2 / b_bias=0 / direct=3 / weightb=1 / open_gop=0 / weightp=2 / keyint=240 / keyint_min=23 / scenecut=40 / intra_refresh=0 / rc=2pass / mbtree=0 / bitrate=8149 / ratetol=1.0 / qcomp=0.60 / qpmin=0 / qpmax=69 / qpstep=4 / cplxblur=20.0 / qblur=0.5 / ip_ratio=1.40 / pb_ratio=1.30 / aq=2:0.90
Язык : English
Default : Да
Forced : Нет

Аудио #1
Идентификатор : 2
Формат : AC-3
Формат/Информация : Audio Coding 3
Расширение режима : CM (complete main)
Параметр Endianness формата : Big
Идентификатор кодека : A_AC3
Продолжительность : 1 ч. 50 м.
Вид битрейта : Постоянный
Битрейт : 448 Кбит/сек
Каналы : 6 каналов
Расположение каналов : Front: L C R, Side: L R, LFE
Частота : 48,0 КГц
Битовая глубина : 16 бит
Метод сжатия : С потерями
Размер потока : 353 Мбайт (4%)
Заголовок : AC3, 448 Kbps (6 ch) Дублированный
Язык : Russian
Default : Да
Forced : Нет

Аудио #2
Идентификатор : 3
Формат : AC-3
Формат/Информация : Audio Coding 3
Расширение режима : CM (complete main)
Параметр Endianness формата : Big
Идентификатор кодека : A_AC3
Продолжительность : 1 ч. 50 м.
Вид битрейта : Постоянный
Битрейт : 384 Кбит/сек
Каналы : 6 каналов
Расположение каналов : Front: L C R, Side: L R, LFE
Частота : 48,0 КГц
Битовая глубина : 16 бит
Метод сжатия : С потерями
Размер потока : 303 Мбайт (4%)
Заголовок : AC3, 384 Kbps (6 ch) Профессиональный двухголосый
Язык : Russian
Default : Нет
Forced : Нет

Аудио #3
Идентификатор : 4
Формат : AC-3
Формат/Информация : Audio Coding 3
Расширение режима : CM (complete main)
Параметр Endianness формата : Big
Идентификатор кодека : A_AC3
Продолжительность : 1 ч. 50 м.
Вид битрейта : Постоянный
Битрейт : 448 Кбит/сек
Каналы : 6 каналов
Расположение каналов : Front: L C R, Side: L R, LFE
Частота : 48,0 КГц
Битовая глубина : 16 бит
Метод сжатия : С потерями
Размер потока : 353 Мбайт (4%)
Заголовок : AC3, 448 Kbps (6 ch) Авторский (Гаврилов)
Язык : Russian
Default : Нет
Forced : Нет

Аудио #4
Идентификатор : 5
Формат : AC-3
Формат/Информация : Audio Coding 3
Расширение режима : CM (complete main)
Параметр Endianness формата : Big
Идентификатор кодека : A_AC3
Продолжительность : 1 ч. 50 м.
Вид битрейта : Постоянный
Битрейт : 448 Кбит/сек
Каналы : 6 каналов
Расположение каналов : Front: L C R, Side: L R, LFE
Частота : 48,0 КГц
Битовая глубина : 16 бит
Метод сжатия : С потерями
Размер потока : 353 Мбайт (4%)
Заголовок : AC3, 448 Kbps (6 ch) Авторский (Немахов)
Язык : Russian
Default : Нет
Forced : Нет

Аудио #5
Идентификатор : 6
Формат : AC-3
Формат/Информация : Audio Coding 3
Расширение режима : CM (complete main)
Параметр Endianness формата : Big
Идентификатор кодека : A_AC3
Продолжительность : 1 ч. 50 м.
Вид битрейта : Постоянный
Битрейт : 448 Кбит/сек
Каналы : 6 каналов
Расположение каналов : Front: L C R, Side: L R, LFE
Частота : 48,0 КГц
Битовая глубина : 16 бит
Метод сжатия : С потерями
Размер потока : 353 Мбайт (4%)
Заголовок : AC3, 448 kb/s (6 ch) Original
Язык : English
Default : Нет
Forced : Нет

Текст #1
Идентификатор : 7
Формат : UTF-8
Идентификатор кодека : S_TEXT/UTF8
Идентификатор кодека/Информация : UTF-8 Plain Text
Язык : Russian
Default : Нет
Forced : Нет

Текст #2
Идентификатор : 8
Формат : UTF-8
Идентификатор кодека : S_TEXT/UTF8
Идентификатор кодека/Информация : UTF-8 Plain Text
Язык : Ukrainian
Default : Нет
Forced : Нет

Текст #3
Идентификатор : 9
Формат : UTF-8
Идентификатор кодека : S_TEXT/UTF8
Идентификатор кодека/Информация : UTF-8 Plain Text
Язык : English
Default : Нет
Forced : Нет

Меню
00:00:00.000 : en:Chapter 1
00:09:51.174 : en:Chapter 2
00:14:50.473 : en:Chapter 3
00:19:56.946 : en:Chapter 4
00:28:08.604 : en:Chapter 5
00:34:37.826 : en:Chapter 6
00:41:03.336 : en:Chapter 7
00:50:36.283 : en:Chapter 8
00:58:20.414 : en:Chapter 9
01:00:29.084 : en:Chapter 10
01:08:37.322 : en:Chapter 11
01:16:10.608 : en:Chapter 12
01:25:52.272 : en:Chapter 13
01:30:32.802 : en:Chapter 14
01:37:58.456 : en:Chapter 15
01:43:28.119 : en:Chapter 16
____________________________________________
x264 [info]: frame I:1012 Avg QP:19.36 size:123385
x264 [info]: frame P:43519 Avg QP:22.17 size: 65105
x264 [info]: frame B:114017 Avg QP:24.24 size: 33127


загрузка...
Правила, инструкции, FAQ!!!
Торрент  Добавлен [12 мар 2013, 14:04] Скачать торрент
Скачать торрент
[ Размер 40.18 КБ / Просмотров 6 ]

Статус  
 
Размер  7.95 ГБ
Приватный: Нет (DHT включён)
.torrent скачан  12
Как залить торрент? | Как скачать Torrent? | Как смотреть и слушать онлайн?  


     Отправить личное сообщение
   
Страница 1 из 1
Показать сообщения за:  Поле сортировки  
Начать новую тему Ответить на тему

   Похожие торренты   Автор   Ответы   Просмотры   Последнее сообщение 
В этой теме нет новых непрочитанных сообщений. Скачать торрент Добро пожаловать в рай 2 / Into the Blue 2: The Reef (Стивен Херек / Stephen Herek) [2009 г., Боевик, DVDRip-AVC]

в форуме Боевики, Размер: 1.44 ГБ, Здоровье: 100%

Anonymous

0
8|2

73
0

17 фев 2014, 11:45

Anonymous Перейти к последнему сообщению

В этой теме нет новых непрочитанных сообщений. Скачать торрент Проверен Добро пожаловать в капкан / Welcome to the Punch (2013) BDRip 1080p | D, A

в форуме 720p | 1080p, Размер: 12.47 ГБ, Здоровье: 100%

Anonymous

0
16|1

158
190

29 сен 2014, 17:40

Anonymous Перейти к последнему сообщению

В этой теме нет новых непрочитанных сообщений. Скачать торрент Добро пожаловать в джунгли / Welcome to the Jungle (2013) BDRip 1080p | L2

в форуме 720p | 1080p, Размер: 7.44 ГБ, Здоровье: 0%

Anonymous

0
0|0

114
0

09 фев 2014, 00:12

Anonymous Перейти к последнему сообщению

В этой теме нет новых непрочитанных сообщений. Скачать торрент Добро пожаловать в Лэйквью! / Lakeview Terrace (Нил ЛаБут / Neil LaBute) [2008, триллер, драма, криминал, BDRip]

в форуме Триллеры, Размер: 1.45 ГБ, Здоровье: 100%

Anonymous

0
14|4

37
0

19 фев 2014, 09:57

Anonymous Перейти к последнему сообщению

В этой теме нет новых непрочитанных сообщений. Скачать торрент Добро пожаловать в Донгмакгол / Welkkeom tu Dongmakgol (2005) BDRip 720p | A

в форуме 720p | 1080p, Размер: 10.22 ГБ, Здоровье: 100%

Anonymous

0
1|0

165
4

18 мар 2014, 22:27

Anonymous Перейти к последнему сообщению



Сейчас этот форум просматривают: нет зарегистрированных пользователей и гости: 4


Вы не можете начинать темы
Вы не можете отвечать на сообщения
Вы не можете редактировать свои сообщения
Вы не можете удалять свои сообщения
Вы не можете добавлять вложения

Перейти:  

!ВНИМАНИЕ!
 Ресурс не предоставляет электронные версии произведений, а занимается лишь коллекционированием и каталогизацией ссылок, присылаемых и публикуемых на форуме нашими читателями. Если вы являетесь правообладателем какого-либо представленного материала и не желаете чтобы ссылка на него находилась в нашем каталоге, свяжитесь с нами и мы незамедлительно удалим её. Файлы для обмена на трекере предоставлены пользователями сайта, и администрация не несёт ответственности за их содержание. Просьба не заливать файлы, защищенные авторскими правами, а также файлы нелегального содержания!