На всех торрентах на трекере установлена скидка на скачивание в размере 100 процентов(а).
 Возможность скачивания торрента НЕ зависит от ограничений при низком ратио, низком аплоаде, требуемом ратио или требуемом аплоаде.


Начать новую тему Ответить на тему
Статистика раздачи
Размер: 2.18 ГБ | Добавлен: 12 мар 2013, 11:37 | Скачали: 0
Сидеров: 0  [0 байт/сек]    Личеров: 0  [0 байт/сек]
Пред. тема | След. тема 

Автор
Сообщение

СообщениеДобавлено: 12 мар 2013, 11:37 

Полтора рыцаря: В поисках похищенной принцессы Херцелинды


Название: Полтора рыцаря: В поисках похищенной принцессы Херцелинды
Оригинальное название: 1 1/2 Ritter - Auf der Suche nach der hinreißenden Herzelinde
Год выхода: 2008
Жанр: комедия
Режиссер: Тиль Швайгер, Торстен Кюнстлер, Кристоф Валь

В фильме снимались: Тиль Швайгер, Рик Каваниан, Юлия Дитце, Томас Готтшалк, Удо Кир, Годе Бенедикс, Роберто Бланко, Грегор Блоеб, Кен Дюкен, Ханнелоре Эльснер

Вкратце:
Жил-был король со своей дочерью Херцелиндой. При принцессе был рыцарь-телохранитель Ланце. Она его любила, и он ее тоже любил, но не мог ей в этом признаться. Но в один прекрасный день принцессу похищает Черный рыцарь, и храбрый Ланце отправляется на ее поиски, а в помощь ему подряжается псевдо-рыцарь — трусливый турок. С тех пор и начинаются злоключения Полтора рыцаря.



Страна: Германия
Студия: Warner Bros. GmbH
Продолжительность: 01:55:10
Перевод: Дубляж

Формат: mkv
Кодек: h.264
Качество: BDRip 720p
Видео: 1280x544, 2327 Kbps, 23.976 fps, 0.139 Bits/(Pixel*Frame)
Звук: AC3, 384 Kbps, 6 channels

Format : Matroska
Format version : Version 2
File size : 2.18 GiB
Duration : 1h 55mn
Overall bit rate : 2 711 Kbps
Movie name : Knights.In.Search.of.the.Ravishing.Princess.Herzelinde.2008.1080p.Bluray.VC1.Remux
Encoded date : UTC 2013-03-09 08:09:05
Writing application : mkvmerge v5.6.0 ('Kenya Kane') built on May 27 2012 16:44:04
Writing library : libebml v1.2.3 + libmatroska v1.3.0

Video
ID : 1
Format : AVC
Format/Info : Advanced Video Codec
Format profile : High@L4.1
Format settings, CABAC : Yes
Format settings, ReFrames : 12 frames
Codec ID : V_MPEG4/ISO/AVC
Duration : 1h 55mn
Bit rate : 2 327 Kbps
Width : 1 280 pixels
Height : 544 pixels
Display aspect ratio : 2.35:1
Frame rate : 23.976 fps
Color space : YUV
Chroma subsampling : 4:2:0
Bit depth : 8 bits
Scan type : Progressive
Bits/(Pixel*Frame) : 0.139
Stream size : 1.83 GiB (84%)
Writing library : x264 core 129 r2230 1cffe9f
Encoding settings : cabac=1 / ref=12 / deblock=1:0:0 / analyse=0x3:0x133 / me=umh / subme=11 / psy=1 / psy_rd=1.00:0.00 / mixed_ref=1 / me_range=32 / chroma_me=1 / trellis=2 / 8x8dct=1 / cqm=0 / deadzone=21,11 / fast_pskip=0 / chroma_qp_offset=-2 / threads=9 / lookahead_threads=1 / sliced_threads=0 / nr=0 / decimate=1 / interlaced=0 / bluray_compat=0 / constrained_intra=0 / bframes=8 / b_pyramid=2 / b_adapt=2 / b_bias=0 / direct=3 / weightb=1 / open_gop=0 / weightp=2 / keyint=250 / keyint_min=23 / scenecut=40 / intra_refresh=0 / rc_lookahead=60 / rc=2pass / mbtree=1 / bitrate=2327 / ratetol=1.0 / qcomp=0.60 / qpmin=0 / qpmax=69 / qpstep=4 / cplxblur=20.0 / qblur=0.5 / ip_ratio=1.40 / aq=1:1.00
Language : English
Default : Yes
Forced : No

Audio
ID : 2
Format : AC-3
Format/Info : Audio Coding 3
Mode extension : CM (complete main)
Format settings, Endianness : Big
Codec ID : A_AC3
Duration : 1h 55mn
Bit rate mode : Constant
Bit rate : 384 Kbps
Channel(s) : 6 channels
Channel positions : Front: L C R, Side: L R, LFE
Sampling rate : 48.0 KHz
Bit depth : 16 bits
Compression mode : Lossy
Stream size : 316 MiB (14%)
Title : дубляж
Language : Russian
Default : Yes
Forced : No


x264 [info]: frame I:2478 Avg QP:18.28 size: 87939
x264 [info]: frame P:35313 Avg QP:21.95 size: 23838
x264 [info]: frame B:127890 Avg QP:24.68 size: 7425


загрузка...
Правила, инструкции, FAQ!!!
Торрент  Добавлен [12 мар 2013, 11:37] Скачать торрент
Скачать торрент
[ Размер 11.33 КБ / Просмотров 12 ]

Статус  
 
Размер  2.18 ГБ
Приватный: Нет (DHT включён)
.torrent скачан  0
Как залить торрент? | Как скачать Torrent? | Как смотреть и слушать онлайн?  


     Отправить личное сообщение
   
Страница 1 из 1
Показать сообщения за:  Поле сортировки  
Начать новую тему Ответить на тему

   Похожие торренты   Автор   Ответы   Просмотры   Последнее сообщение 
В этой теме нет новых непрочитанных сообщений. Скачать торрент Проверен Астрология для жизни - P. Orban / Орбан П. - Astrologie als Therapie.Auf der Suche nach der Luge Ein Selbsterfahrungsbuch /Астрология как терапия: в поисках лжи.Книга самопостижения [2010, PDF, RUS]

в форуме Астрология, Размер: 22.11 МБ, Здоровье: 0%

Anonymous

0
0|0

2
1

11 сен 2016, 23:20

Anonymous Перейти к последнему сообщению

В этой теме нет новых непрочитанных сообщений. Скачать торрент Проверен В поисках сокровищ нибелунгов / Die Jagd nach dem Schatz der Nibelungen (2008) DVDRip | P

в форуме Боевики, Размер: 2.17 ГБ, Здоровье: 100%

Anonymous

0
139|4

101
5

14 ноя 2014, 18:28

Anonymous Перейти к последнему сообщению

В этой теме нет новых непрочитанных сообщений. Скачать торрент Проверен Путешествие Гектора в поисках счастья / Hector and the Search for Happiness (2014) BDRip 720p | iTunes

в форуме 720p | 1080p, Размер: 4.36 ГБ, Здоровье: 100%

Гость

0
193|186

55
66

21 фев 2015, 19:08

Гость Перейти к последнему сообщению

В этой теме нет новых непрочитанных сообщений. Скачать торрент Индиана Джонс: В поисках утраченного ковчега / Raiders of the Lost Ark (Стивен Спилберг / Steven Spielberg) [1981, боевик, приключения, BDRip 720p]

в форуме 720p | 1080p, Размер: 10.07 ГБ, Здоровье: 100%

Anonymous

0
8|2

58
0

25 фев 2014, 22:42

Anonymous Перейти к последнему сообщению

В этой теме нет новых непрочитанных сообщений. Скачать торрент Проверен История рыцаря / A Knight's Tale (2001) BDRip-AVC | D, P, A

в форуме Боевики, Размер: 5.98 ГБ, Здоровье: 100%

Гость

0
9|0

34
0

30 ноя 2014, 10:58

Гость Перейти к последнему сообщению



Сейчас этот форум просматривают: нет зарегистрированных пользователей и гости: 2


Вы не можете начинать темы
Вы не можете отвечать на сообщения
Вы не можете редактировать свои сообщения
Вы не можете удалять свои сообщения
Вы не можете добавлять вложения

Перейти:  

!ВНИМАНИЕ!
 Ресурс не предоставляет электронные версии произведений, а занимается лишь коллекционированием и каталогизацией ссылок, присылаемых и публикуемых на форуме нашими читателями. Если вы являетесь правообладателем какого-либо представленного материала и не желаете чтобы ссылка на него находилась в нашем каталоге, свяжитесь с нами и мы незамедлительно удалим её. Файлы для обмена на трекере предоставлены пользователями сайта, и администрация не несёт ответственности за их содержание. Просьба не заливать файлы, защищенные авторскими правами, а также файлы нелегального содержания!