На всех торрентах на трекере установлена скидка на скачивание в размере 100 процентов(а).
 Возможность скачивания торрента НЕ зависит от ограничений при низком ратио, низком аплоаде, требуемом ратио или требуемом аплоаде.


Начать новую тему Ответить на тему
Статистика раздачи
Размер: 4.37 ГБ | Добавлен: 19 сен 2014, 19:26 | Скачали: 1037
Сидеров: 92  [0 байт/сек]    Личеров: 7  [0 байт/сек]
Пред. тема | След. тема 

Автор
Сообщение

СообщениеДобавлено: 19 сен 2014, 19:26 

Название: Пиджак
Оригинальное название: The Jacket
Год выхода: 2004
Жанр: фантастика, триллер, драма, детектив
Режиссер: Джон Мэйбери

В ролях: Эдриан Броуди, Кира Найтли, Крис Кристофферсон, Дженнифер Джейсон Ли, Келли Линч, Брэд Ренфро, Дэниэл Крэйг, Стивен Макинтош, Брендан Койл, МакКензи Филлипс ...

О фильме:
Ветеран войны в Персидском заливе Джек Старкс, поправляется после ранения в голову. Он возвращается в родной штат Вермонт, но ранение дает о себе знать приступами амнезии. Когда Старкса обвиняют в убийстве полицейского, его направляют на психиатрическую экспертизу.
Доктор Беккер использует экпериментальные методы лечения, вводя Старксу новейшие препараты. После инъекций Старксу надевают смирительную рубашку и помещают в подвал. В наркотическом опьянении мысли Старкса устремляются в будущее, где он встречает Джеки и узнает, что ему осталось жить 4 дня. Вместе в Джеки он ищет возможность убежать от судьбы.



Выпущено: США, Германия
Продолжительность: 01:42:55
Перевод: Дублированный


Кодек: H264
Качество: BDRip 1080p
Видео: 1920x792, 5636 Kbps, 23.976 fps
Звук: 48 kHz, AC3, 6c, 448 kbps
Cубтитры: русские, английские

General
Unique ID : 254778893948122710613131235350129634191 (0xBFACA14E93F704F3A170A00166A76B8F)
Complete name : Пиджак.2004.BDRip.1080p.Rus.mkv
Format : Matroska
Format version : Version 2
File size : 4.37 GiB
Duration : 1h 42mn
Overall bit rate : 6 081 Kbps
Movie name : Пиджак.2004
Encoded date : UTC 2012-03-05 10:24:56
Writing application : mkvmerge v5.3.0 ('I could have danced') built on Feb 9 2012 10:38:07
Writing library : libebml v1.2.3 + libmatroska v1.3.0

Video
ID : 1
Format : AVC
Format/Info : Advanced Video Codec
Format profile : High@L4.1
Format settings, CABAC : Yes
Format settings, ReFrames : 5 frames
Codec ID : V_MPEG4/ISO/AVC
Duration : 1h 42mn
Bit rate : 5 636 Kbps
Width : 1 920 pixels
Height : 792 pixels
Display aspect ratio : 2.40:1
Frame rate mode : Variable
Frame rate : 23.976 fps
Color space : YUV
Chroma subsampling : 4:2:0
Bit depth : 8 bits
Scan type : Progressive
Bits/(Pixel*Frame) : 0.155
Stream size : 3.96 GiB (91%)
Title : Rip by Boriy
Writing library : x264 core 120 r2146M bcd41db
Encoding settings : cabac=1 / ref=5 / deblock=1:0:0 / analyse=0x3:0x133 / me=umh / subme=10 / psy=1 / psy_rd=1.00:0.10 / mixed_ref=1 / me_range=32 / chroma_me=1 / trellis=2 / 8x8dct=1 / cqm=0 / deadzone=21,11 / fast_pskip=0 / chroma_qp_offset=-3 / threads=12 / sliced_threads=0 / nr=0 / decimate=1 / interlaced=0 / bluray_compat=0 / constrained_intra=0 / bframes=5 / b_pyramid=2 / b_adapt=2 / b_bias=0 / direct=3 / weightb=1 / open_gop=0 / weightp=2 / keyint=240 / keyint_min=24 / scenecut=40 / intra_refresh=0 / rc_lookahead=60 / rc=2pass / mbtree=1 / bitrate=5636 / ratetol=1.0 / qcomp=0.60 / qpmin=0 / qpmax=69 / qpstep=4 / cplxblur=20.0 / qblur=0.5 / ip_ratio=1.40 / aq=1:1.00
Language : English
Default : Yes
Forced : No

Audio
ID : 2
Format : AC-3
Format/Info : Audio Coding 3
Mode extension : CM (complete main)
Codec ID : A_AC3
Duration : 1h 42mn
Bit rate mode : Constant
Bit rate : 448 Kbps
Channel(s) : 6 channels
Channel positions : Front: L C R, Side: L R, LFE
Sampling rate : 48.0 KHz
Bit depth : 16 bits
Compression mode : Lossy
Stream size : 330 MiB (7%)
Title : Дубляж
Language : Russian
Default : Yes
Forced : No

Text #1
ID : 3
Format : UTF-8
Codec ID : S_TEXT/UTF8
Codec ID/Info : UTF-8 Plain Text
Language : Russian
Default : No
Forced : No

Text #2
ID : 4
Format : UTF-8
Codec ID : S_TEXT/UTF8
Codec ID/Info : UTF-8 Plain Text
Language : English
Default : No
Forced : No

Menu
00:00:00.000 : en:
00:03:44.599 : en:
00:07:10.805 : en:
00:12:29.248 : en:
00:16:41.417 : en:
00:19:28.584 : en:
00:22:50.827 : en:
00:27:10.211 : en:
00:30:38.378 : en:
00:35:53.359 : en:
00:38:28.806 : en:
00:43:26.812 : en:
00:46:23.405 : en:
00:51:16.990 : en:
00:56:20.627 : en:
00:59:24.727 : en:
01:01:49.539 : en:
01:04:44.463 : en:
01:09:45.723 : en:
01:15:02.289 : en:
01:17:59.091 : en:
01:21:42.314 : en:
01:27:48.513 : en:
01:32:45.184 : en:
01:35:29.724 : en:
01:42:53.250 : en:
загрузка...
Правила, инструкции, FAQ!!!
Торрент  Добавлен [19 сен 2014, 19:26] Скачать торрент
Скачать торрент
[ Размер 22.38 КБ / Просмотров 22 ]

Статус
Проверен 
 
Размер  4.37 ГБ
Приватный: Нет (DHT включён)
.torrent скачан  1037
Как залить торрент? | Как скачать Torrent? | Как смотреть и слушать онлайн?  


     Отправить личное сообщение
   
Страница 1 из 1
Показать сообщения за:  Поле сортировки  
Начать новую тему Ответить на тему

   Похожие торренты   Автор   Ответы   Просмотры   Последнее сообщение 
В этой теме нет новых непрочитанных сообщений. Скачать торрент Проверен Пиджак / The Jacket (2005) BDRip 720p | D

в форуме 720p | 1080p, Размер: 3.75 ГБ, Здоровье: 100%

Anonymous

0
51|3

83
332

19 сен 2014, 19:24

Anonymous Перейти к последнему сообщению

В этой теме нет новых непрочитанных сообщений. Скачать торрент Проверен [iPhone] Пиджак / The Jacket (Джон Мэйбери) [2004 г., ужасы, фантастика, триллер, фэнтези, DVDRip]

в форуме Фильмы для iPod, iPhone, iPad, Размер: 1.05 ГБ, Здоровье: 100%

Anonymous

0
21|7

34
0

13 май 2015, 23:56

Anonymous Перейти к последнему сообщению

В этой теме нет новых непрочитанных сообщений. Скачать торрент Пиджак / Jacket, The (Джон Мэйбери / John Maybury) [2005 г., фантастика, триллер, HDRip] Dub

в форуме Фантастика, Фэнтези, Размер: 1.45 ГБ, Здоровье: 100%

Anonymous

0
56|19

58
0

25 апр 2014, 08:53

Anonymous Перейти к последнему сообщению

В этой теме нет новых непрочитанных сообщений. Скачать торрент Проверен Цельнометаллическая оболочка / Full Metal Jacket (1987) BDRip 1080p

в форуме 720p | 1080p, Размер: 7.3 ГБ, Здоровье: 100%

Anonymous

0
30|1

37
95

28 окт 2014, 20:18

Anonymous Перейти к последнему сообщению

В этой теме нет новых непрочитанных сообщений. Скачать торрент Проверен Цельнометаллическая оболочка / Full Metal Jacket (1987) BDRip [H.264]

в форуме Военные, Размер: 4.1 ГБ, Здоровье: 100%

Anonymous

0
164|27

86
0

04 апр 2016, 19:26

Anonymous Перейти к последнему сообщению



Сейчас этот форум просматривают: нет зарегистрированных пользователей и гости: 1


Вы не можете начинать темы
Вы не можете отвечать на сообщения
Вы не можете редактировать свои сообщения
Вы не можете удалять свои сообщения
Вы не можете добавлять вложения

Перейти:  

!ВНИМАНИЕ!
 Ресурс не предоставляет электронные версии произведений, а занимается лишь коллекционированием и каталогизацией ссылок, присылаемых и публикуемых на форуме нашими читателями. Если вы являетесь правообладателем какого-либо представленного материала и не желаете чтобы ссылка на него находилась в нашем каталоге, свяжитесь с нами и мы незамедлительно удалим её. Файлы для обмена на трекере предоставлены пользователями сайта, и администрация не несёт ответственности за их содержание. Просьба не заливать файлы, защищенные авторскими правами, а также файлы нелегального содержания!